Результатов поиска: 497

Автор Сообщение

Darth_47

Создавать темы 29-Май-2023 21:26

[Цитировать]

Добавлена озвучка третьей серии!

Darth_47

Создавать темы 10-Май-2023 00:00

[Цитировать]

Добавлена озвучка Владислава Персанова во вторую серию!

Faer

Создавать темы 27-Май-2023 21:20

[Цитировать]

На пути в Атлантиду / Unterwegs nach Atlantis
Страна: ФРГ, Чехословакия, Австрия, Швейцария
Жанр: Фантастика, семейный
Год выпуска: 1982
Продолжительность: 13 x ~ 00:25:00
Перевод: Субтитры Olskan
Режиссер: Tomáš Fantl, Ota Hofman
Описание: Двенадцатилетний мальчик из 3000-го года, сын ученого, который занимался разработкой машин времени. Его дядя – доктор Граф – обвиняется Академией наук в нарушении основного закона путешествий во времени, а именно в том, что он изменяет прошлое. Из-за этого Рон отправляется в путешествие по переулкам времени.
Временная раздача.
Список эпизодов:
4.Der geheimnisvolle Graf / Таинственный граф
Качество: DVDRip
Формат: MKV
Видео: AVC, 720х544, 4:3, 25fps, 2 862 Кбит/с
Аудио: MP3, 48КГц, 192 Кбит/с, стерео
Субтитры : Русские
Работа над релизом:
Видеоряд предоставлен Darth_47
Совместный перевод: с немецкого - Mr.Faer, с чешского - Zaremba

MediaInfo

Общее
Уникальный идентификатор : 27304961325778732693151827591378822512 (0x148ABE8822BA61FC91CB72E89870E570)
Формат : Matroska
Версия формата : Version 4
Размер файла : 249 Мбайт
Продолжительность : 24 м. 57 с.
Общий поток : 1 393 Кбит/сек
Дата кодирования : UTC 2023-05-27 17:34:34
Программа кодирования : mkvmerge v52.0.0 ('Secret For The Mad') 64-bit
Библиотека кодирования : libebml v1.4.1 + libmatroska v1.6.2
Видео
Идентификатор : 1
Формат : MPEG-4 Visual
Профиль формата : Advanced Simple@L5
Настройки формата : BVOP2
Параметр BVOP формата : 2
Параметр QPel формата : Нет
Параметр GMC формата : Без точки перехода
Параметр матрицы формата : Default (H.263)
Идентификатор кодека : V_MS/VFW/FOURCC / XVID
Идентификатор кодека/Подсказка : XviD
Продолжительность : 24 м. 57 с.
Битрейт : 1 263 Кбит/сек
Ширина : 576 пикселей
Высота : 432 пикселя
Соотношение сторон : 4:3
Режим частоты кадров : Постоянный
Частота кадров : 25,000 кадров/сек
Цветовое пространство : YUV
Субдискретизация насыщенности : 4:2:0
Битовая глубина : 8 бит
Тип развёртки : Прогрессивная
Метод сжатия : С потерями
Бит/(Пиксели*Кадры) : 0.203
Размер потока : 226 Мбайт (91%)
Библиотека кодирования : XviD 1.1.2 (UTC 2006-11-01)
Default : Да
Forced : Нет
Аудио
Идентификатор : 2
Формат : MPEG Audio
Версия формата : Version 1
Профиль формата : Layer 3
Настройки формата : Joint stereo / MS Stereo
Идентификатор кодека : A_MPEG/L3
Идентификатор кодека/Подсказка : MP3
Продолжительность : 24 м. 57 с.
Вид битрейта : Постоянный
Битрейт : 128 Кбит/сек
Каналы : 2 канала
Частота : 48,0 КГц
Частота кадров : 41,667 кадра/сек (1152 SPF)
Метод сжатия : С потерями
Размер потока : 22,8 Мбайт (9%)
Default : Да
Forced : Нет
Текст
Идентификатор : 3
Формат : UTF-8
Идентификатор кодека : S_TEXT/UTF8
Идентификатор кодека/Информация : UTF-8 Plain Text
Продолжительность : 23 м. 44 с.
Битрейт : 104 бит/сек
Count of elements : 355
Размер потока : 18,3 Кбайт (0%)
Заголовок : Olskan
Язык : Russian
Default : Да
Forced : Нет

Скриншоты




Darth_47

Создавать темы 08-Май-2023 01:05

[Цитировать]

Добавлена пятая серия!

Darth_47

Создавать темы 17-Апр-2023 17:44

[Цитировать]

Добавлена четвёртая серия!

Darth_47

Создавать темы 28-Мар-2023 21:40

[Цитировать]

Добавлена третья серия!

Darth_47

Создавать темы 01-Мар-2023 21:37

[Цитировать]

Добавлена вторая серия!

Darth_47

Создавать темы 03-Фев-2023 22:35

[Цитировать]

Вечный рыцарь | Рыцарь навсегда | Рыцарь вечности | Forever Knight- Страна: Канада, Западная Германия
Жанр: триллер, драма, ужасы, вампирская тематика
Год выпуска: 1995-1996
Продолжительность: 22 серии по ~ 00:45:00-Перевод: Авторский (одноголосый закадровый) (Horror Maker)
Субтитры: английские (все серии)-Режиссеры: Джерент Вин Дэйвис, Джон Кассар, Аллен Крокер и др.-В ролях: Джерент Вин Дэйвис, Катрин Дишер, Найджел Беннетт, Лиза Райдер, Блу Манкума, Бен Басс и др.-Описание: Вампиры… Ночные кровавые оргии, смерть, смерть, одна только смерть… Но есть один вампир, который сумел разорвать этот бессмысленный, опустошительный круг, сумел найти оправдание своему существованию, и приблизиться к мечте о смерти. Все вокруг удивляются, с каким бесстрашием детектив из отдела убийств бросается в самые кровавые схватки, и выходит из них невредимым. Когда-то его звали Николас Брабанте, и он был вампиром 800 лет, а теперь он Ник Найт, и служит детективом отдела убийств в Торонто. Многие столетия он мечтал о смерти, искал ее, и теперь, расследуя жестокие преступления, он вступает в борьбу с самыми разными негодяями, не задумываясь об исходе или поражении. Его друг, следователь-коронер и врач, Натали Ламберт, готовит для него особые, чесночные таблетки, которые позволяют ему переносить солнечный свет. Хотя с его работой он чаще действует под покровом ночи. Благодаря терапии, Николас, хоть и не переносит распятия, но при прикосновении к нему его тело уже не горит адским пламенем, а только получает ожог. И хотя ему по-прежнему плохо в церкви, по долгу службы он заходит туда.
Сериал снимался с 1989 по 1996 год. 3 сезона, всего 70 эпизодов. Forever Knight - идейный прародитель сериалов "Ангел" и "В лунном свете". Очень высокохудожественная картина с прекрасной режиссурой и, к сожалению, совершенно не известная у нас. В США по популярности сериал не уступал "Горцу".
-

Список серий

01. Black Buddha: Part 1 (Черный Будда. Часть 1)
02. Black Buddha: Part 2 (Черный Будда. Часть 2)
03. Outside the Lines (Выходя за пределы)
04. Blackwing (Чёрное Крыло)
05. Blind Faith (Слепая вера)
06.
07.
08.
09.
10.
11.
12.
13.
14.
15.
16.
17.
18.
19.
20.
21.
22.

Рецензия Edvissium с Кинопоиска

Нет слов — одни положительные эмоции…
Поскольку не являюсь большим экспертом в 'вампирических' фильмах, то, наверное, моя рецензия не будет полностью объективной. Впрочем, решать вам.
Сериал этот в наших широтах малоизвестен, поэтому вышла на след 'Вечного рыцаря' благодаря просмотру впоследствии полюбившегося мне 'Гиперкуба' (да и вообще, симпатии к канадской кинопродукции и к Геренту Вин Дэвису в частности).
Именно интерес к этому весьма своебразному актёру (привлекательному мужчине и хорошему человеку) стал сильным толчком к просмотру, затмив мой скептицизм относительно 'вампиризма'. (Ну не фанат я подобного, тем более тема испошлённая и заезженная!)
Однако просмотр сериала приятно меня порадовал. По многим причинам:
1) Сам сериал - в первую очередь добротный, увлекательный детектив, способный заинтриговать зрителя. К тому же благодаря формату ситкома ненавязчив и лёгок, в противовес всяческим 'санта-барбарам'.
2) Мистическая атмосфера, несмотря на малобюджетность, подана 'вкусно', с любимым мною элитарным духом западноевропейской готической культуры. В свою очередь дух мистический удачно оттеняется духом урбанистическим, несколько схожим с настроениями суперблокбастера 'Бегущий по лезвию' (отмечу сразу их визуально-сюжетное сходство). Канадцы не отстранялись от родных мест, а выгодно их представили, посему возникло желание побывать в Торонто.
3) При этом 'Рыцарь' лишён излишнего пафоса (как и канадское кино в целом, за что его и люблю). В сериале присутствует некая душевность, искренность, непринужденность. Все герои представлены в первую очередь живыми людьми, со своими печалями, слабостями, неважно, 800-летний вампир это, девушка или убийца. В изображении актёрами героев сохранена та любимая мною умеренность, которую некоторые склонны принимать за 'плохую игру', когда герой не ломает излишних драм и умеет жить обыденной жизнью. Да и в целом сериал не лишён юмора, улыбки, остроумия.
4) Пусть и не всеми любимый, но интересный мне образ 'доброго вампира'. Подкупает, не спорю, ибо наскучил бесконечный ряд киномерзавцев и циников. Наивно, да. Но поднимает настроение и вдохновляет. Как и весь сериал, который в целом нравоучителен, но при этом сострадателен к человеку.
5) 'Старая гвардия' полюбившихся мне канадских актеров, знакомых по трилогии 'Куб' да и другим фильмам В. Натали.
6) Сам по себе подбор актеров удачен: и люди симпачные, и в свои роли отлично вписались.
7) В завершение отмечу как достоинство то, что другие могут считать недостатком - 'моральная устарелость' сериала. Да, не все так прилизано компьютером, как в привычном современным зрителям новом кино. Однако мне приятно было погружаться в атмосферу начала 90-х, с их вареной джинсой, прическами с 'химией', примитивными ПК да техно, в которые мне довелось родиться, но которых уже не вернуть. Так что для ностальгируюющих - самое то.
Вместо выводов - выскажу благодарность создателям и Г. В. Дэвису за положительные эмоции и приятно проведённый досуг.
В целом, от меня, с учетом всех нюансов, как ненавязчивый и наполненный смыслом сериал, 'Knight Forever' получает такую оценку:
7 из 10

- -Релиз

Работа над релизом:
Видеоряд в DVD-качестве скачан с tv-vault.me
Авторский перевод - Horror Maker
Спонсоры перевода - MAG3131, Arias, snorrinort, alexkop26, viketon, CROMAG, Faer
Сведение звука и сборка релиза - Darth_47
-Качество видео: DVDRemux
Формат видео: MKV
Видео: MPEG2 Video 720x480 (4:3) 29.97fps 3810 kb/s
Аудио 1: Dolby AC3 48000Hz stereo 192kbps [Русский АО (Horror Maker)]
Аудио 2: Dolby AC3 48000Hz stereo 192kbps [English]
Субтитры: английские (srt, UTF-8)-

MediaInfo

General
Unique ID                      : 304260336281640456026384205536126972090 (0xE4E668C4D4ED8B0935E7C122FABE30BA)
Complete name                  : Forever Knight s03e01 Black Buddha Part 1 1995.DVDRemux.Rus-Eng.cinemaniacs.mkv
Format                         : Matroska
Format version                 : Version 4
File size                      : 1.30 GiB
Duration                       : 44 min 10 s
Overall bit rate mode          : Variable
Overall bit rate               : 4 197 kb/s
Encoded date                   : UTC 2023-02-03 16:32:35
Writing application            : mkvmerge v35.0.0 ('All The Love In The World') 64-bit
Writing library                : libebml v1.3.9 + libmatroska v1.5.2
Video
ID                             : 1
Format                         : MPEG Video
Format version                 : Version 2
Format profile                 : Main@Main
Format settings                : CustomMatrix / BVOP
Format settings, BVOP          : Yes
Format settings, Matrix        : Custom
Format settings, GOP           : Variable
Format settings, picture struc : Frame
Codec ID                       : V_MPEG2
Codec ID/Info                  : MPEG 1 or 2 Video
Duration                       : 44 min 10 s
Bit rate mode                  : Variable
Bit rate                       : 3 810 kb/s
Maximum bit rate               : 9 800 kb/s
Width                          : 720 pixels
Height                         : 480 pixels
Display aspect ratio           : 4:3
Frame rate mode                : Constant
Frame rate                     : 29.970 (30000/1001) FPS
Standard                       : NTSC
Color space                    : YUV
Chroma subsampling             : 4:2:0
Bit depth                      : 8 bits
Scan type                      : Interlaced
Scan order                     : Top Field First
Compression mode               : Lossy
Bits/(Pixel*Frame)             : 0.368
Time code of first frame       : 00:59:59;00
Time code source               : Group of pictures header
GOP, Open/Closed               : Open
GOP, Open/Closed of first fram : Closed
Stream size                    : 1.18 GiB (91%)
Title                          : cinemaniacs
Language                       : English
Default                        : Yes
Forced                         : No
Audio #1
ID                             : 2
Format                         : AC-3
Format/Info                    : Audio Coding 3
Commercial name                : Dolby Digital
Codec ID                       : A_AC3
Duration                       : 44 min 10 s
Bit rate mode                  : Constant
Bit rate                       : 192 kb/s
Channel(s)                     : 2 channels
Channel layout                 : L R
Sampling rate                  : 48.0 kHz
Frame rate                     : 31.250 FPS (1536 SPF)
Compression mode               : Lossy
Stream size                    : 60.7 MiB (5%)
Title                          : Русский АО (Horror Maker)
Language                       : Russian
Service kind                   : Complete Main
Default                        : Yes
Forced                         : No
Audio #2
ID                             : 3
Format                         : AC-3
Format/Info                    : Audio Coding 3
Commercial name                : Dolby Digital
Codec ID                       : A_AC3
Duration                       : 44 min 10 s
Bit rate mode                  : Constant
Bit rate                       : 192 kb/s
Channel(s)                     : 2 channels
Channel layout                 : L R
Sampling rate                  : 48.0 kHz
Frame rate                     : 31.250 FPS (1536 SPF)
Compression mode               : Lossy
Stream size                    : 60.7 MiB (5%)
Language                       : English
Service kind                   : Complete Main
Default                        : No
Forced                         : No
Text
ID                             : 4
Format                         : UTF-8
Codec ID                       : S_TEXT/UTF8
Codec ID/Info                  : UTF-8 Plain Text
Duration                       : 43 min 41 s
Bit rate                       : 123 b/s
Frame rate                     : 0.301 FPS
Count of elements              : 789
Stream size                    : 39.4 KiB (0%)
Language                       : English
Default                        : No
Forced                         : No
Menu
00:00:00.000                   : en:Chapter 01
00:02:56.142                   : en:Chapter 02
00:11:42.601                   : en:Chapter 03
00:19:19.658                   : en:Chapter 04
00:24:07.679                   : en:Chapter 05
00:35:31.095                   : en:Chapter 06
00:42:47.831                   : en:Chapter 07
00:43:41.051                   : en:Chapter 08

Скриншоты


Darth_47

Создавать темы 22-Апр-2023 22:09

[Цитировать]

Добавлены серии 4-6! Сериал полностью озвучен. Ближе к концу от него стало отчетливо веять еще и вторым Сайлент Хиллом (игрой) вдобавок к тому, что я уже отмечал. Очень крутой сериал, который держит интригу и не дает разгадку практически до самого конца! А для Японии сериал так вообще уникален (с точки зрения человека, очень поверхностно знакомого с японскими сериалами и фильмами). Так что могу смело рекомендовать его к ознакомлению всем, кто видит это сообщение. Просмотр много времени не займет, и вы скорее всего получите немалое удовольствие от него.

Darth_47

Создавать темы 10-Апр-2023 16:55

[Цитировать]

Добавлены серии 2-3! Сериал всё еще жжёт! Всё еще безумно интересно, что же будет дальше. Опасения есть только насчёт концовки - мало какие сериалы из подобных заканчиваются так же круто, как начинаются.

Darth_47

Создавать темы 03-Апр-2023 20:30

[Цитировать]

Обожаю, когда случайно на что-то натыкаешься, и это внезапно очень нравится! Данный сериал как раз из таких. Неправильно, конечно, судить только по одной серии, но эта самая одна серия мне дико понравилась! Этакие "Когда плачут цикады" с лёгкой примесью Твин Пикса. Очень круто, всем рекомендую! Надеюсь, последующие серии не разочаруют.

Darth_47

Создавать темы 03-Апр-2023 20:28

[Цитировать]

Инцидент в деревне Удзукава | Происшествие в деревне Удзукава | Uzukawamura Jiken | 鵜頭川村事件- Страна: Япония
Жанр: детектив, криминал, саспенс
Год выпуска: 2022
Продолжительность: 6 серий по ~ 00:46:00-Перевод: Любительский (одноголосый закадровый) (Г. Михайлов)
Субтитры: английские-Режиссер: Ю Ириэ | Yu Irie-В ролях: Рюхэй Мацуда, Мисако Рэнбуцу, Масато Ибу, Асука Кудо, Анна Ямада, Ёсиёси Аракава, Хидэкадзу Масима, Тосики Аята, Сюнъя Итабаси, Ами Томитэ и др.-Описание: Хитоми, жена доктора Ивамори Акиры, пропала без вести. Вместе с их дочерью Аико, он отправляется в родную деревню жены, чтобы отыскать её. На окрестности обрушивается сильный ливень, и местность оказывается блокированной. Вскоре в деревне происходит убийство.- -Релиз

Работа над релизом:
Исходники в качестве HDTVRip-1080p были найдены в глубинах p2p-сети
Перевод на русский - Анна Окидзукэ
Озвучка - Г. Михайлов (специально для cinemaniacs.club)
Английские субтитры найдены на d-addicts.com, автор перевода - HPriest
Обработка чистого голоса, сведение его с оригиналом и сборка релиза - Darth_47
-Качество видео: HDTVRip 1080p
Формат видео: MKV
Видео: HVC1 1920x1080 59.94fps 2874 kb/s
Аудио 1: Dolby AC3 48000Hz stereo 192kbps [Русский ЛО (Г. Михайлов)]
Аудио 2: AAC 48000Hz stereo 192kbps [Japanese]
Субтитры: английские (ass)-

MediaInfo

General
Unique ID : 34751565066233713749357414941993967629 (0x1A24E871374799E1C0712F29632BA00D)
Complete name : Uzukawamura Jiken s01e01 2022.x265.HDTVRip.Rus-Jap.cinemaniacs.mkv
Format : Matroska
Format version : Version 4
File size : 1.06 GiB
Duration : 46 min 24 s
Overall bit rate : 3 259 kb/s
Encoded date : UTC 2023-04-03 16:37:27
Writing application : mkvmerge v35.0.0 ('All The Love In The World') 64-bit
Writing library : libebml v1.3.9 + libmatroska v1.5.2
Video
ID : 1
Format : HEVC
Format/Info : High Efficiency Video Coding
Format profile : Main@L4.1@Main
Codec ID : V_MPEGH/ISO/HEVC
Duration : 46 min 24 s
Bit rate : 2 874 kb/s
Width : 1 920 pixels
Height : 1 080 pixels
Display aspect ratio : 16:9
Frame rate mode : Constant
Frame rate : 59.940 (59940/1000) FPS
Color space : YUV
Chroma subsampling : 4:2:0 (Type 0)
Bit depth : 8 bits
Bits/(Pixel*Frame) : 0.023
Stream size : 954 MiB (88%)
Title : cinemaniacs
Writing library : x265 3.5+36-d0ba643c1:[Windows][GCC 11.2.0][64 bit] 8bit+10bit+12bit
Encoding settings : cpuid=1111039 / frame-threads=3 / numa-pools=8 / wpp / no-pmode / no-pme / no-psnr / no-ssim / log-level=2 / input-csp=1 / input-res=1920x1080 / interlace=0 / total-frames=0 / level-idc=0 / high-tier=1 / uhd-bd=0 / ref=3 / no-allow-non-conformance / no-repeat-headers / annexb / no-aud / no-eob / no-eos / no-hrd / info / hash=0 / no-temporal-layers / open-gop / min-keyint=25 / keyint=250 / gop-lookahead=0 / bframes=4 / b-adapt=2 / b-pyramid / bframe-bias=0 / rc-lookahead=20 / lookahead-slices=6 / scenecut=40 / no-hist-scenecut / radl=0 / no-splice / no-intra-refresh / ctu=64 / min-cu-size=8 / no-rect / no-amp / max-tu-size=32 / tu-inter-depth=1 / tu-intra-depth=1 / limit-tu=0 / rdoq-level=0 / dynamic-rd=0.00 / no-ssim-rd / signhide / no-tskip / nr-intra=0 / nr-inter=0 / no-constrained-intra / strong-intra-smoothing / max-merge=3 / limit-refs=1 / no-limit-modes / me=1 / subme=2 / merange=57 / temporal-mvp / no-frame-dup / no-hme / weightp / no-weightb / no-analyze-src-pics / deblock=0:0 / sao / no-sao-non-deblock / rd=3 / selective-sao=4 / early-skip / rskip / no-fast-intra / no-tskip-fast / no-cu-lossless / b-intra / no-splitrd-skip / rdpenalty=0 / psy-rd=2.00 / psy-rdoq=0.00 / no-rd-refine / no-lossless / cbqpoffs=0 / crqpoffs=0 / rc=crf / crf=22.0 / qcomp=0.60 / qpstep=4 / stats-write=0 / stats-read=0 / ipratio=1.40 / pbratio=1.30 / aq-mode=2 / aq-strength=1.00 / cutree / zone-count=0 / no-strict-cbr / qg-size=32 / no-rc-grain / qpmax=69 / qpmin=0 / no-const-vbv / sar=1 / overscan=0 / videoformat=5 / range=0 / colorprim=1 / transfer=1 / colormatrix=1 / chromaloc=1 / chromaloc-top=0 / chromaloc-bottom=0 / display-window=0 / cll=0,0 / min-luma=0 / max-luma=255 / log2-max-poc-lsb=8 / vui-timing-info / vui-hrd-info / slices=1 / no-opt-qp-pps / no-opt-ref-list-length-pps / no-multi-pass-opt-rps / scenecut-bias=0.05 / hist-threshold=0.03 / no-opt-cu-delta-qp / no-aq-motion / no-hdr10 / no-hdr10-opt / no-dhdr10-opt / no-idr-recovery-sei / analysis-reuse-level=0 / analysis-save-reuse-level=0 / analysis-load-reuse-level=0 / scale-factor=0 / refine-intra=0 / refine-inter=0 / refine-mv=1 / refine-ctu-distortion=0 / no-limit-sao / ctu-info=0 / no-lowpass-dct / refine-analysis-type=0 / copy-pic=1 / max-ausize-factor=1.0 / no-dynamic-refine / no-single-sei / no-hevc-aq / no-svt / no-field / qp-adaptation-range=1.00 / scenecut-aware-qp=0conformance-window-offsets / right=0 / bottom=0 / decoder-max-rate=0 / no-vbv-live-multi-pass
Language : Japanese
Default : Yes
Forced : No
Color range : Limited
Color primaries : BT.709
Transfer characteristics : BT.709
Matrix coefficients : BT.709
Audio #1
ID : 2
Format : AC-3
Format/Info : Audio Coding 3
Commercial name : Dolby Digital
Codec ID : A_AC3
Duration : 46 min 24 s
Bit rate mode : Constant
Bit rate : 192 kb/s
Channel(s) : 2 channels
Channel layout : L R
Sampling rate : 48.0 kHz
Frame rate : 31.250 FPS (1536 SPF)
Compression mode : Lossy
Stream size : 63.7 MiB (6%)
Title : Русский ЛО (Г. Михайлов)
Language : Russian
Service kind : Complete Main
Default : Yes
Forced : No
Audio #2
ID : 3
Format : AAC LC
Format/Info : Advanced Audio Codec Low Complexity
Codec ID : A_AAC-2
Duration : 46 min 24 s
Bit rate : 192 kb/s
Channel(s) : 2 channels
Channel layout : L R
Sampling rate : 48.0 kHz
Frame rate : 46.875 FPS (1024 SPF)
Compression mode : Lossy
Delay relative to video : 19 ms
Stream size : 62.6 MiB (6%)
Language : Japanese
Default : No
Forced : No
Text
ID : 4
Format : ASS
Codec ID : S_TEXT/ASS
Codec ID/Info : Advanced Sub Station Alpha
Duration : 43 min 40 s
Bit rate : 73 b/s
Frame rate : 0.168 FPS
Count of elements : 440
Compression mode : Lossless
Stream size : 23.5 KiB (0%)
Title : Английские (HPriest)
Language : English
Default : No
Forced : No

Darth_47

Создавать темы 27-Мар-2023 21:23

[Цитировать]

Добавлена озвучка в четвёртую серию!

Faer

Создавать темы 02-Мар-2023 14:28

[Цитировать]

Вы долго этого ждали. Мы долго к этому шли. И этот день настал. Четвёртая серия сериала 1990 с субтитрами! Серия уже отдана для озвучивания.

Garvi

Создавать темы 18-Мар-2023 14:07

[Цитировать]

Никто не раздаёт?

Darth_47

Создавать темы 20-Фев-2023 20:13

[Цитировать]

33314А если мне что-то реально нужно, то на денежные затраты я просто забиваю. Надо - значит надо!
Прекрасно понимаю, сам такой)

EX1900

Создавать темы 20-Фев-2023 11:29

[Цитировать]

Спасибо большое за комплименты! На самом деле, я сериал переводил потому что очень сильно он мне нужен. Давно хотел его посмотреть, но с переводом ни где не нашел. А если мне что-то реально нужно, то на денежные затраты я просто забиваю. Надо - значит надо!

Darth_47

Создавать темы 19-Фев-2023 17:44

[Цитировать]

Добавлены серии 6-13! Примерно за полгода основной сериал был полностью переведен! Возможно, это рекорд сайта) Но впереди нас ждут новые серии немецкого возрождения, так что это путешествие еще не окончено.
Хочу в очередной раз выразить огромную благодарность EX1900 за эту находку, настойчивость в продвижении сериала на перевод и, конечно, за огромную финансовую поддержку! По сути, он почти в одиночку вытянул весь проект, это дорогого стоит. Лично мне было очень интересно его смотреть и не менее интересно работать с ним по части сведения звука и корректировки редких ошибок. Жемчужина американского телевидения.

Darth_47

Создавать темы 18-Янв-2023 00:31

[Цитировать]

За гранью веры: Факт или вымысел | Beyond Belief: Fact or Fiction- Страна: США
Жанр: ужасы, фантастика, фэнтези, триллер, детектив
Год выпуска: 2002
Продолжительность: 13 серий по ~ 00:45:00-Перевод: Авторский (одноголосый закадровый) (Horror Maker)
Субтитры: английские для слабослышащих-Режиссер: Тони Рэндел (Tony Randel) и др.-В ролях: Джонатан Фрейкс, Кэмпбелл Лэйн, Сидни Уолш, Дэвид Эндриол, Роберт Харви, Бэзил Хоффман, Чад Гэбриел, Хулиен Цезарио, Мэттью Бартилсон и др.-Описание: В течение часа вам покажут пять историй. Ни одна из них не имеет логического объяснения, однако некоторые из них действительно случались. Ваша задача определить, что является правдой, а что - вымыслом.- -Релиз

Работа над релизом:
Видеоряд скачан с tv-vault.me
Авторский перевод - Horror Maker
Спонсоры перевода - EX1900, pompilius
Сведение звука и сборка релиза - Darth_47
-Качество видео: WEBRip 480p
Формат видео: MKV
Видео: MPEG4 Video (H264) 640x480 23.976fps 811 kb/s
Аудио 1: Dolby AC3 48000Hz stereo 256kbps Русский АО (Horror Maker)
Аудио 2: DD+ 48000Hz stereo 224kbps English
Субтитры: английские для слабослышащих (srt, UTF-8)-

MediaInfo

General
Unique ID : 26192203613926932267565863086891314846 (0x13B46F573DE9B47C3D2CF87D7775AE9E)
Complete name : Beyond Belief Fact or Fiction s04e01 2002.x264.WEBRip.Rus-Eng.cinemaniacs.mkv
Format : Matroska
Format version : Version 4
File size : 412 MiB
Duration : 44 min 30 s
Overall bit rate : 1 293 kb/s
Encoded date : UTC 2023-01-12 21:28:52
Writing application : mkvmerge v35.0.0 ('All The Love In The World') 64-bit
Writing library : libebml v1.3.9 + libmatroska v1.5.2
Video
ID : 1
Format : AVC
Format/Info : Advanced Video Codec
Format profile : Main@L3
Format settings : CABAC / 5 Ref Frames
Format settings, CABAC : Yes
Format settings, Reference fra : 5 frames
Codec ID : V_MPEG4/ISO/AVC
Duration : 44 min 30 s
Bit rate : 811 kb/s
Width : 640 pixels
Original width : 720 pixels
Height : 480 pixels
Display aspect ratio : 4:3
Frame rate mode : Constant
Frame rate : 23.976 (24000/1001) FPS
Color space : YUV
Chroma subsampling : 4:2:0
Bit depth : 8 bits
Scan type : Progressive
Bits/(Pixel*Frame) : 0.110
Stream size : 258 MiB (63%)
Title : cinemaniacs
Language : English
Default : Yes
Forced : No
Color range : Limited
Color primaries : BT.709
Transfer characteristics : BT.709
Matrix coefficients : BT.709
Audio #1
ID : 2
Format : AC-3
Format/Info : Audio Coding 3
Commercial name : Dolby Digital
Codec ID : A_AC3
Duration : 44 min 30 s
Bit rate mode : Constant
Bit rate : 256 kb/s
Channel(s) : 2 channels
Channel layout : L R
Sampling rate : 48.0 kHz
Frame rate : 31.250 FPS (1536 SPF)
Compression mode : Lossy
Stream size : 81.5 MiB (20%)
Title : Русский АО (Horror Maker)
Language : Russian
Service kind : Complete Main
Default : Yes
Forced : No
Audio #2
ID : 3
Format : E-AC-3
Format/Info : Enhanced AC-3
Commercial name : Dolby Digital Plus
Codec ID : A_EAC3
Duration : 44 min 30 s
Bit rate mode : Constant
Bit rate : 224 kb/s
Channel(s) : 2 channels
Channel layout : L R
Sampling rate : 48.0 kHz
Frame rate : 31.250 FPS (1536 SPF)
Compression mode : Lossy
Stream size : 71.3 MiB (17%)
Language : English
Service kind : Complete Main
Default : No
Forced : No
Text
ID : 4
Format : UTF-8
Codec ID : S_TEXT/UTF8
Codec ID/Info : UTF-8 Plain Text
Duration : 43 min 47 s
Bit rate : 79 b/s
Frame rate : 0.301 FPS
Count of elements : 792
Stream size : 25.5 KiB (0%)
Title : English [SDH]
Language : English
Default : No
Forced : No

Скриншоты


Darth_47

Создавать темы 14-Мар-2023 23:25

[Цитировать]

За гранью веры: Факт или вымысел | Beyond Belief: Fact or Fiction
(X-фактор: Невероятное | X-Factor: Das Unfassbare)
[5 СЕЗОН]
- Страна: США, Германия
Жанр: ужасы, фантастика, фэнтези, триллер, детектив
Год выпуска: 2022-...
Продолжительность: ~ 00:45:00 / серия-Перевод: Любительский (одноголосый закадровый) (Horror Maker)
Субтитры: русские, немецкие-Режиссер: Лара Асланян (Lara Aslanian) и др.-В ролях: Джонатан Фрейкс, Эндрю Биернат, Брэкстон Хейл, Грант С. Джонсон, Мартин Томпсон, Эрин Ву и др.-Описание: В течение часа вам покажут пять историй (в первой серии четыре). Ни одна из них не имеет логического объяснения, однако некоторые из них действительно случались. Ваша задача определить, что является правдой, а что - вымыслом.- -Релиз

Работа над релизом:
Исходники в качестве WEBRip-1080p скачаны с немецкого сайта data-load.in (огромное спасибо Arias за наводку)
Перевод субтитров с немецкого языка на русский - Мария Игнатова
Озвучка по этим субтитрам - Horror Maker
Спонсор перевода и озвучки - EX1900
Сведение звука и сборка релиза - Darth_47
-Качество видео: WEBRip 1080p
Формат видео: MKV
Видео: MPEG4 Video (H264) 1920x1080 25fps 7385 kb/s
Аудио 1: Dolby AC3 48000Hz stereo 192kbps [Русский ЛО (Horror Maker)]
Аудио 2: AAC 48000Hz stereo 125kbps [German]
Субтитры: русские, немецкие (srt, UTF-8)-

MediaInfo

General
Unique ID : 46899832325635362412810817215357892492 (0x23489442EE0958FBD05DFDF3395DB78C)
Complete name : X-Factor Das Unfassbare s05e01 2022.x264.WEBRip.1080p.Rus-Ger.cinemaniacs.mkv
Format : Matroska
Format version : Version 4
File size : 2.56 GiB
Duration : 47 min 28 s
Overall bit rate : 7 705 kb/s
Encoded date : UTC 2023-03-13 15:38:35
Writing application : mkvmerge v35.0.0 ('All The Love In The World') 64-bit
Writing library : libebml v1.3.9 + libmatroska v1.5.2
Video
ID : 1
Format : AVC
Format/Info : Advanced Video Codec
Format profile : High@L4
Format settings : CABAC / 4 Ref Frames
Format settings, CABAC : Yes
Format settings, Reference fra : 4 frames
Codec ID : V_MPEG4/ISO/AVC
Duration : 47 min 28 s
Bit rate mode : Constant
Bit rate : 7 385 kb/s
Nominal bit rate : 7 800 kb/s
Width : 1 920 pixels
Height : 1 080 pixels
Display aspect ratio : 16:9
Frame rate mode : Constant
Frame rate : 25.000 FPS
Color space : YUV
Chroma subsampling : 4:2:0
Bit depth : 8 bits
Scan type : Progressive
Bits/(Pixel*Frame) : 0.142
Stream size : 2.45 GiB (96%)
Title : cinemaniacs
Writing library : x264 core 155
Encoding settings : cabac=1 / ref=3 / deblock=1:0:0 / analyse=0x3:0x113 / me=hex / subme=5 / psy=1 / psy_rd=1.00:0.00 / mixed_ref=1 / me_range=16 / chroma_me=1 / trellis=1 / 8x8dct=1 / cqm=0 / deadzone=21,11 / fast_pskip=1 / chroma_qp_offset=0 / threads=36 / lookahead_threads=8 / sliced_threads=0 / slices=1 / nr=0 / decimate=1 / interlaced=0 / bluray_compat=0 / stitchable=1 / constrained_intra=0 / bframes=3 / b_pyramid=2 / b_adapt=2 / b_bias=0 / direct=1 / weightb=1 / open_gop=0 / weightp=2 / keyint=50 / keyint_min=5 / scenecut=0 / intra_refresh=0 / rc_lookahead=40 / rc=cbr / mbtree=1 / bitrate=7800 / ratetol=1.0 / qcomp=0.60 / qpmin=0 / qpmax=69 / qpstep=4 / vbv_maxrate=7800 / vbv_bufsize=15800 / nal_hrd=cbr / filler=1 / ip_ratio=1.40 / aq=3:1.00
Language : German
Default : Yes
Forced : No
Color range : Limited
Matrix coefficients : BT.470 System B/G
Audio #1
ID : 2
Format : AC-3
Format/Info : Audio Coding 3
Commercial name : Dolby Digital
Codec ID : A_AC3
Duration : 47 min 28 s
Bit rate mode : Constant
Bit rate : 192 kb/s
Channel(s) : 2 channels
Channel layout : L R
Sampling rate : 48.0 kHz
Frame rate : 31.250 FPS (1536 SPF)
Compression mode : Lossy
Stream size : 65.2 MiB (2%)
Title : Русский ЛО (Horror Maker)
Language : Russian
Service kind : Complete Main
Default : Yes
Forced : No
Audio #2
ID : 3
Format : AAC LC
Format/Info : Advanced Audio Codec Low Complexity
Codec ID : A_AAC-2
Duration : 47 min 28 s
Bit rate : 125 kb/s
Channel(s) : 2 channels
Channel layout : L R
Sampling rate : 48.0 kHz
Frame rate : 46.875 FPS (1024 SPF)
Compression mode : Lossy
Stream size : 42.3 MiB (2%)
Language : German
Default : No
Forced : No
Text #1
ID : 4
Format : UTF-8
Codec ID : S_TEXT/UTF8
Codec ID/Info : UTF-8 Plain Text
Duration : 47 min 0 s
Bit rate : 89 b/s
Frame rate : 0.218 FPS
Count of elements : 614
Stream size : 30.7 KiB (0%)
Title : Русские (Мария Игнатова)
Language : Russian
Default : No
Forced : No
Text #2
ID : 5
Format : UTF-8
Codec ID : S_TEXT/UTF8
Codec ID/Info : UTF-8 Plain Text
Duration : 47 min 1 s
Bit rate : 64 b/s
Frame rate : 0.251 FPS
Count of elements : 707
Stream size : 22.3 KiB (0%)
Language : German
Default : No
Forced : No

kandid

Создавать темы 12-Фев-2023 13:33

[Цитировать]

На скриншоты Касперский ругается!

Nezanna

Создавать темы 11-Фев-2023 22:17

[Цитировать]

ДОБАВЛЕНЫ СЕРИИ 21-26. ПЕРЕВОД ЗАКОНЧЕН.

Darth_47

Создавать темы 29-Янв-2023 17:27

[Цитировать]

Добавлена третья серия!

Darth_47

Создавать темы 25-Янв-2023 15:28

[Цитировать]

Закрываем шестилетний гештальт. Добавлена 13 серия в авторском переводе Вячеслава Котова. Все сохранившиеся серии сериала переведены!

CROMAG

Создавать темы 16-Янв-2023 21:45

[Цитировать]

Качайте Остаюсь на раздаче

Faer

Создавать темы 16-Янв-2023 20:55

[Цитировать]

Теперь с озвучкой!

Faer

Создавать темы 16-Янв-2023 20:53

[Цитировать]

Послание из космоса: Галактические войны / Message from Space: Galactic Wars / 宇宙からのメッセージ・銀河大戦
Страна: Япония
Жанр: фантастика
Годы выпуска: 1978-1979
Продолжительность: 2 х 00:22:50
Перевод: Любительский одноголосый (Den904)
Перевод 2: Субтитры Mr.Faer [Olskan]
Cубтитры: русские
Режиссер: Сётаро Исиномори
В ролях: Хироюки Санада, Акира Ода, Рю Нишида, Ивао Табучи, Йоко Акитани
Описание: Спустя столетия после того, как люди Земли освоили межзвездные путешествия, человечество процветает по всей галактике. Но неожиданно для всех, одну из колоний захватывает империя Габан. На путь праведной мести и восстановления справедливости встаёт наш герой: недавний выпускник школы звёздных пилотов, Хаято Ген...
Доп. информация: Спин-офф одноименного фильма.
Качество видео: DVDRip
Формат видео: MKV
Видео: AVC, 720х544, 4:3, 23.976fps, 803 Кбит/с
Аудио 1: AC3, 48КГц, 192 Кбит/с, стерео - Den904
Аудио 2: AAC, 48.0КГц, 117 Кбит/с, стерео - Original

MediaInfo

Общее
Уникальный идентификатор : 135991088520881159354550309317498631495 (0x664EEE5314C77CD76C6878E5A8BFF547)
Формат : Matroska
Версия формата : Version 4
Размер файла : 182 Мбайт
Продолжительность : 22 м. 52 с.
Общий поток : 1 114 Кбит/сек
Дата кодирования : UTC 2023-01-16 17:51:26
Программа кодирования : mkvmerge v52.0.0 ('Secret For The Mad') 64-bit
Библиотека кодирования : libebml v1.4.1 + libmatroska v1.6.2
Видео
Идентификатор : 1
Формат : AVC
Формат/Информация : Advanced Video Codec
Профиль формата : High@L4.2
Настройки формата : CABAC / 4 Ref Frames
Параметр CABAC формата : Да
Параметр RefFrames формата : 4 кадра
Идентификатор кодека : V_MPEG4/ISO/AVC
Продолжительность : 22 м. 49 с.
Битрейт : 804 Кбит/сек
Ширина : 720 пикселей
Высота : 544 пикселя
Соотношение сторон : 4:3
Режим частоты кадров : Постоянный
Частота кадров : 23,976 (23976/1000) кадра/сек
Цветовое пространство : YUV
Субдискретизация насыщенности : 4:2:0
Битовая глубина : 8 бит
Тип развёртки : Прогрессивная
Бит/(Пиксели*Кадры) : 0.086
Размер потока : 131 Мбайт (72%)
Заголовок : VIDEO
Библиотека кодирования : x264 core 120 r2164 da19765
Настройки программы : cabac=1 / ref=3 / deblock=1:0:0 / analyse=0x3:0x113 / me=hex / subme=7 / psy=1 / psy_rd=1.00:0.00 / mixed_ref=1 / me_range=16 / chroma_me=1 / trellis=1 / 8x8dct=1 / cqm=0 / deadzone=21,11 / fast_pskip=1 / chroma_qp_offset=-2 / threads=12 / sliced_threads=0 / nr=0 / decimate=1 / interlaced=0 / bluray_compat=0 / constrained_intra=0 / bframes=3 / b_pyramid=2 / b_adapt=1 / b_bias=0 / direct=1 / weightb=1 / open_gop=0 / weightp=2 / keyint=240 / keyint_min=23 / scenecut=40 / intra_refresh=0 / rc_lookahead=40 / rc=crf / mbtree=1 / crf=24.0 / qcomp=0.60 / qpmin=0 / qpmax=69 / qpstep=4 / vbv_maxrate=31250 / vbv_bufsize=31250 / crf_max=0.0 / nal_hrd=none / ip_ratio=1.40 / aq=1:1.00
Язык : Japanese
Default : Да
Forced : Да
Аудио #1
Идентификатор : 2
Формат : AC-3
Формат/Информация : Audio Coding 3
Коммерческое название : Dolby Digital
Идентификатор кодека : A_AC3
Продолжительность : 22 м. 52 с.
Вид битрейта : Постоянный
Битрейт : 192 Кбит/сек
Каналы : 2 канала
Channel layout : L R
Частота : 48,0 КГц
Частота кадров : 31,250 кадров/сек (1536 SPF)
Метод сжатия : С потерями
Размер потока : 31,4 Мбайт (17%)
Заголовок : Den904
Язык : Russian
Service kind : Complete Main
Default : Да
Forced : Нет
Аудио #2
Идентификатор : 3
Формат : AAC LC
Формат/Информация : Advanced Audio Codec Low Complexity
Идентификатор кодека : A_AAC-2
Продолжительность : 22 м. 48 с.
Битрейт : 117 Кбит/сек
Каналы : 2 канала
Channel layout : L R
Частота : 48,0 КГц
Частота кадров : 46,875 кадров/сек (1024 SPF)
Метод сжатия : С потерями
Размер потока : 19,1 Мбайт (10%)
Заголовок : AUDIO ENG
Язык : Japanese
Default : Нет
Forced : Нет
Текст
Идентификатор : 4
Формат : ASS
Идентификатор кодека : S_TEXT/ASS
Идентификатор кодека/Информация : Advanced Sub Station Alpha
Продолжительность : 22 м. 50 с.
Битрейт : 106 бит/сек
Count of elements : 260
Метод сжатия : Без потерь
Размер потока : 17,8 Кбайт (0%)
Язык : Russian
Default : Да
Forced : Нет

Скриншоты




EX1900

Создавать темы 12-Янв-2023 05:08

[Цитировать]

Отлично! Остался последний сезон.

Darth_47

Создавать темы 11-Янв-2023 10:08

[Цитировать]

Добавлены серии 10-13! Сезон завершен.

Darth_47

Создавать темы 29-Дек-2022 16:53

[Цитировать]

Добавлена девятая серия!
 

Текущее время: 05-Июн 19:02

Часовой пояс: UTC + 3