Результатов поиска: 3

Автор Сообщение

Darth_47

Создавать темы 17-Янв-2023 20:57

[Цитировать]

Шерлок Холмс | Sherlock Holmes- Страна: Великобритания
Жанр: ужасы, драма, криминал, детектив, история
Год выпуска: 1964-1965
Продолжительность: 13 серий по ~ 00:50:00-Перевод: Авторский (одноголосый закадровый) (Вячеслав Котов)
Субтитры: английские-Режиссер: Робин Миджли (Robin Midgley) и др.-В ролях: Дуглас Уилмер, Найджел Сток, Питер Мэдден, Грэйс Арнольд, Энид Линдси, Джимми Эштон, Гари Рэймонд, Габриэлла Ликуди, Филип Бонд и др.-Описание: Серия экранизаций о приключениях Шерлока Холмса, основанная на рассказах сэра Артура Конан Дойля. Прелюбопытнейшее визуальное воплощение похождений знаменитого сыщика, являющееся одним из первых. На британском телевидении это вообще всего лишь вторая адаптация, первая вышла в 1951 году.-

Список серий

00 (пилот). Пёстрая лента (The Speckled Band)

Мнение переводчика

Эпизод 0 (пилот). "Пёстрая лента"
Всякий раз, когда попадается очередная экранизация уже знакомого произведения - невольно возникает желание сравнивать. А тут еще и ностальгический фактор подключился, ведь нашего Холмса в исполнении Ливанова я знаю и обожаю с детства... Посему оставаться объективным и беспристрастным - задача непростая. Но я попробую.
Сам Холмс вроде бы неплох. По одной серии сложно составить какое-либо четкое мнение, но никаких отторжений не вызвал. Разве что подсознательно не хватало хрипотцы в голосе, но это проделки ностальгии. А вот Ватсон показался мне тут совсем уж вялым и бесполезным. Что есть он, что нет его - никакой разницы. Даже в разговоре со злобным отчимом он поспешил ретироваться...
Кстати, в здешней версии совершенно опущена интрига с этим отчимом. К позору, не знаю как было в тексте, не читал, но в нашей версии Ватсон успел выразить сомнение в словах девушки, дескать, падчерицы часто клевещут на отчимов. И хотя эта интрига очень быстро разрешилась, само ее наличие было приятным бонусом...
А вот чего нашей версии не хватает как воздуха - так это аутентичной атмосферы. Все-таки, как ни крути, а Прибалтика никак не похожа на Лондон, и наблюдать за действиями британского сыщика в естественных британских пейзажах - это всегда плюс. Огромный и жирный.
- -
Работа над релизом:
Видеоряд в DVD-качестве скачан с tv-vault.me
Авторский перевод - Вячеслав Котов
Спонсор перевода, сведение звука и сборка релиза - Darth_47
-Качество видео: DVDRemux
Формат видео: MKV
Видео: MPEG2 Video 720x576 (4:3) 25fps 6108 kb/s
Аудио 1: Dolby AC3 48000Hz stereo 192kbps Русский АО (Вячеслав Котов)
Аудио 2: Dolby AC3 48000Hz mono 192kbps English
Аудио 3: Dolby AC3 48000Hz mono 192kbps Spanish
Субтитры: английские (VobSub)-

MediaInfo

General
Unique ID                      : 95825911604552323580028595489425906918 (0x48176635F3B1DFC47F1B45FB9FD8DCE6)
Complete name                  : Sherlock Holmes s01e00 (Pilot) The Speckled Band 1964.DVDRemux.Rus-Eng.cinemaniacs.mkv
Format                         : Matroska
Format version                 : Version 4
File size                      : 2.29 GiB
Duration                       : 49 min 1 s
Overall bit rate mode          : Variable
Overall bit rate               : 6 691 kb/s
Encoded date                   : UTC 2023-01-12 18:34:06
Writing application            : mkvmerge v35.0.0 ('All The Love In The World') 64-bit
Writing library                : libebml v1.3.9 + libmatroska v1.5.2
Video
ID                             : 1
Format                         : MPEG Video
Format version                 : Version 2
Format profile                 : Main@Main
Format settings                : CustomMatrix / BVOP
Format settings, BVOP          : Yes
Format settings, Matrix        : Custom
Format settings, GOP           : M=3, N=12
Format settings, picture struc : Frame
Codec ID                       : V_MPEG2
Codec ID/Info                  : MPEG 1 or 2 Video
Duration                       : 49 min 1 s
Bit rate mode                  : Variable
Bit rate                       : 6 108 kb/s
Maximum bit rate               : 9 800 kb/s
Width                          : 720 pixels
Height                         : 576 pixels
Display aspect ratio           : 4:3
Frame rate mode                : Constant
Frame rate                     : 25.000 FPS
Standard                       : PAL
Color space                    : YUV
Chroma subsampling             : 4:2:0
Bit depth                      : 8 bits
Scan type                      : Interlaced
Scan order                     : Top Field First
Compression mode               : Lossy
Bits/(Pixel*Frame)             : 0.589
Time code of first frame       : 10:21:41:12
Time code source               : Group of pictures header
GOP, Open/Closed               : Closed
Stream size                    : 2.09 GiB (91%)
Title                          : cinemaniacs
Language                       : English
Default                        : Yes
Forced                         : No
Audio #1
ID                             : 2
Format                         : AC-3
Format/Info                    : Audio Coding 3
Commercial name                : Dolby Digital
Codec ID                       : A_AC3
Duration                       : 49 min 1 s
Bit rate mode                  : Constant
Bit rate                       : 192 kb/s
Channel(s)                     : 2 channels
Channel layout                 : L R
Sampling rate                  : 48.0 kHz
Frame rate                     : 31.250 FPS (1536 SPF)
Compression mode               : Lossy
Stream size                    : 67.3 MiB (3%)
Title                          : Русский АО (Вячеслав Котов)
Language                       : Russian
Service kind                   : Complete Main
Default                        : Yes
Forced                         : No
Audio #2
ID                             : 3
Format                         : AC-3
Format/Info                    : Audio Coding 3
Commercial name                : Dolby Digital
Codec ID                       : A_AC3
Duration                       : 49 min 1 s
Bit rate mode                  : Constant
Bit rate                       : 192 kb/s
Channel(s)                     : 1 channel
Channel layout                 : C
Sampling rate                  : 48.0 kHz
Frame rate                     : 31.250 FPS (1536 SPF)
Compression mode               : Lossy
Stream size                    : 67.3 MiB (3%)
Language                       : English
Service kind                   : Complete Main
Default                        : No
Forced                         : No
Audio #3
ID                             : 4
Format                         : AC-3
Format/Info                    : Audio Coding 3
Commercial name                : Dolby Digital
Codec ID                       : A_AC3
Duration                       : 49 min 1 s
Bit rate mode                  : Constant
Bit rate                       : 192 kb/s
Channel(s)                     : 1 channel
Channel layout                 : C
Sampling rate                  : 48.0 kHz
Frame rate                     : 31.250 FPS (1536 SPF)
Compression mode               : Lossy
Stream size                    : 67.3 MiB (3%)
Language                       : Spanish
Service kind                   : Complete Main
Default                        : No
Forced                         : No
Text
ID                             : 5
Format                         : VobSub
Muxing mode                    : zlib
Codec ID                       : S_VOBSUB
Codec ID/Info                  : Picture based subtitle format used on DVDs
Duration                       : 47 min 12 s
Bit rate                       : 7 034 b/s
Frame rate                     : 0.224 FPS
Count of elements              : 634
Stream size                    : 2.38 MiB (0%)
Language                       : English
Default                        : No
Forced                         : No
Menu
00:00:00.000                   : en:Chapter 01
00:08:30.120                   : en:Chapter 02
00:19:51.280                   : en:Chapter 03
00:28:44.440                   : en:Chapter 04
00:40:08.600                   : en:Chapter 05

Скриншоты


Darth_47

Создавать темы 30-Дек-2022 00:06

[Цитировать]

Верь мне: Рассказ очевидца о Козлоноге | Trust Me: A Witness Account of The Goatman- Страна: США
Жанр: ужасы, триллер, короткометражка
Год выпуска: 2018
Продолжительность: 00:10:34-Перевод: Любительский (двухголосый закадровый) (PARUSSKI)
Субтитры: русские, английские-Режиссер: Нэйт Рюггер | Nate Ruegger-В ролях: Люк Кук, Александра Бейлесс-Описание: Девушка следует за своим парнем в лес в ожидании романтического сюрприза, но находит нечто гораздо более зловещее. Фильм вдохновлён тысячами свидетельских показаний о существах, обитающих в лесах Северной Америки, и способных менять свою форму.- -
Работа над релизом:
Видеоряд скачан с видеохостинга Vimeo
Английские субтитры скачаны с YouTube
Перевод субтитров на русский язык - zadrot
Озвучка - PARUSSKI
Спонсор озвучки и сборка релиза - Darth_47
-Качество видео: WEBRip 1080p
Формат видео: MKV
Видео: MPEG4 Video (H264) 2048x858 23.976fps 4346 kb/s
Аудио 1: Dolby AC3 48000Hz stereo 256kbps Русский ЛД (PARUSSKI)
Аудио 2: AAC 48000Hz stereo 253kbps English-

MediaInfo

General
Unique ID                      : 18545789163895658428277640952928887947 (0xDF3CA00722683820701D7DAAFDD648B)
Complete name                  : Trust Me [short] 2018.x264.WEBRip.1080p.Rus-Eng.cinemaniacs.mkv
Format                         : Matroska
Format version                 : Version 4
File size                      : 368 MiB
Duration                       : 10 min 34 s
Overall bit rate               : 4 858 kb/s
Encoded date                   : UTC 2022-12-12 21:25:55
Writing application            : mkvmerge v35.0.0 ('All The Love In The World') 64-bit
Writing library                : libebml v1.3.9 + libmatroska v1.5.2
Video
ID                             : 1
Format                         : AVC
Format/Info                    : Advanced Video Codec
Format profile                 : High@L4
Format settings                : CABAC / 5 Ref Frames
Format settings, CABAC         : Yes
Format settings, Reference fra : 5 frames
Codec ID                       : V_MPEG4/ISO/AVC
Duration                       : 10 min 34 s
Bit rate                       : 4 346 kb/s
Width                          : 2 048 pixels
Height                         : 858 pixels
Display aspect ratio           : 2.40:1
Frame rate mode                : Constant
Frame rate                     : 23.976 (24000/1001) FPS
Color space                    : YUV
Chroma subsampling             : 4:2:0
Bit depth                      : 8 bits
Scan type                      : Progressive
Bits/(Pixel*Frame)             : 0.103
Stream size                    : 329 MiB (89%)
Title                          : cinemaniacs
Writing library                : x264 core 160 r10 22fcbe1
Encoding settings              : cabac=1 / ref=5 / deblock=1:0:0 / analyse=0x3:0x113 / me=hex / subme=8 / psy=1 / psy_rd=1.00:0.00 / mixed_ref=1 / me_range=16 / chroma_me=1 / trellis=2 / 8x8dct=1 / cqm=0 / deadzone=21,11 / fast_pskip=1 / chroma_qp_offset=-2 / threads=27 / lookahead_threads=4 / sliced_threads=0 / nr=0 / decimate=1 / interlaced=0 / bluray_compat=0 / stitchable=1 / constrained_intra=0 / bframes=3 / b_pyramid=2 / b_adapt=2 / b_bias=0 / direct=3 / weightb=1 / open_gop=0 / weightp=2 / keyint=infinite / keyint_min=23 / scenecut=40 / intra_refresh=0 / rc_lookahead=50 / rc=crf / mbtree=1 / crf=20.0 / qcomp=0.60 / qpmin=5 / qpmax=69 / qpstep=4 / vbv_maxrate=5500 / vbv_bufsize=15000 / crf_max=0.0 / nal_hrd=none / filler=0 / ip_ratio=1.40 / aq=1:1.00
Language                       : English
Default                        : Yes
Forced                         : No
Color range                    : Limited
Color primaries                : BT.709
Transfer characteristics       : BT.709
Matrix coefficients            : BT.709
Audio #1
ID                             : 2
Format                         : AC-3
Format/Info                    : Audio Coding 3
Commercial name                : Dolby Digital
Codec ID                       : A_AC3
Duration                       : 10 min 34 s
Bit rate mode                  : Constant
Bit rate                       : 256 kb/s
Channel(s)                     : 2 channels
Channel layout                 : L R
Sampling rate                  : 48.0 kHz
Frame rate                     : 31.250 FPS (1536 SPF)
Compression mode               : Lossy
Stream size                    : 19.4 MiB (5%)
Title                          : Русский ЛД (PARUSSKI)
Language                       : Russian
Service kind                   : Complete Main
Default                        : Yes
Forced                         : No
Audio #2
ID                             : 3
Format                         : AAC LC
Format/Info                    : Advanced Audio Codec Low Complexity
Codec ID                       : A_AAC-2
Duration                       : 10 min 34 s
Bit rate                       : 253 kb/s
Channel(s)                     : 2 channels
Channel layout                 : L R
Sampling rate                  : 48.0 kHz
Frame rate                     : 46.875 FPS (1024 SPF)
Compression mode               : Lossy
Stream size                    : 19.2 MiB (5%)
Language                       : English
Default                        : No
Forced                         : No
Text #1
ID                             : 4
Format                         : UTF-8
Codec ID                       : S_TEXT/UTF8
Codec ID/Info                  : UTF-8 Plain Text
Duration                       : 10 min 10 s
Bit rate                       : 54 b/s
Frame rate                     : 0.144 FPS
Count of elements              : 88
Stream size                    : 4.08 KiB (0%)
Title                          : Русские (zadrot)
Language                       : Russian
Default                        : No
Forced                         : No
Text #2
ID                             : 5
Format                         : UTF-8
Codec ID                       : S_TEXT/UTF8
Codec ID/Info                  : UTF-8 Plain Text
Duration                       : 9 min 6 s
Bit rate                       : 31 b/s
Frame rate                     : 0.121 FPS
Count of elements              : 66
Stream size                    : 2.10 KiB (0%)
Language                       : English
Default                        : No
Forced                         : No

Скриншоты


Darth_47

Создавать темы 26-Дек-2022 01:35

[Цитировать]

Убийство в Эдеме | Murder in Eden- Страна: Великобритания (Ирландия)
Жанр: детектив, триллер
Год выпуска: 1991
Продолжительность: 3 серии по ~ 00:50:00-Перевод: Авторский (одноголосый закадровый) (Вячеслав Котов)
Субтитры: нет-Режиссер: Николас Рентон | Nicholas Renton-В ролях: Питер Фёрт, Иэн Бэннен, Алан Армстронг, Тара МакГоурэн, Тони Дойл, Тина Келлехер и др.-Описание: "Убийство в Эдеме" - британский телевизионный детективный мини-сериал, состоящий из трех 50-минутных эпизодов, впервые показанных по каналу ВВС1 19-го июля 1991-го года.
Алан Армстронг играет сержанта МакГина, офицера полиции в сельском графстве Донегол, который расследует убийство. Тим Роарти (Тони Дойл), владелец местного паба, убивает своего бармена, после чего становится жертвой шантажа со стороны одного их жителей деревни. Пока полиция занята поиском убийцы, ей начинают присылать отрезанные части тела жертвы...
-Доп. информация: Мини-сериал снят Николасом Рентоном по сценарию Шейна Конноутона. Литературной основой послужил роман Патрика МакГинли "Почта с болот", впервые опубликованный в 1978-м году. Съемки проходили в районах деревень Гленколемкилл и Тилин в 1990-м году. Также в них приняли участие Иен Бэннен и Питер Фёрт, исполнившие роли враждующих соседей Кэнона Лофтуса и Кеннета Поттера.
В 2016-м году, через 25 лет после премьеры, мини-сериал "Убийство в Эдеме" был полностью загружен на YouTube, став доступным для зрителей впервые после первого показа. Примечательно, что на DVD его пока так и не выпустили.
-

Список серий

[Эпизод первый]
Население тихой рыбацкой деревушки Гленкил в Ирландском графстве Донегол уменьшилось на одного человека, что привело в восторг местного полицейского сержанта МакГила, который много лет мечтал раскрыть загадочное убийство. Однако же кто-то его опередил, узнал личность убийцы. И убийца узнал о том, что его тайна раскрыта, когда получил письмо, подписанное неким "Адресантом с болот".
[Эпизод второй]
Тихая рыбацкая деревушка Гленкил всполошилась, когда сержант МакГин обнаружил на своем дверном молоточке отрезанную стопу пропавшего бармена. Тем временем, между англичанином Кеннетом Поттером (Питер Фёрт) и Кэноном Лофтусом (Иен Бэннен) назревает вражда.
[Эпизод третий]
В Гленкиле обнаруживаются всё новые части тела пропавшего бармена. Письма "Адресанта с болот" к Роарти (Тони Дойл) становятся всё более возмутительными как по стилю, так и по содержанию. Ну а роман Поттера с горничной Кэнона становится опасным для жизни.

Мнение переводчика

Хорошо, когда детектив подвешивает в воздухе какую-то загадку, предлагая зрителю ее разгадать. Совсем отлично, когда отгадка оказывается честной, и злодеем оказывается не левый тип, появившийся в кадре в последнюю минуту, а один из постоянных персонажей. Но при этом очень и очень плохо, когда разгадка оказывается бесхитростной...
Фильм, который начинался как ирландское "Преступление и наказание" по началу имел все шансы на успех. Убийцу показали уже на первых минутах, но вот загвоздка - оказывается, кто-то его видел и теперь начал шантажировать. Имеется узкий круг подозреваемых, каждый из которых подозрительнее другого, и уединенная деревушка в ирландской глубинке, где все всё про всех знают, но при этом у каждого имеется и свой скелет в шкафу. В принципе, помимо Достоевского, у меня возникла ассоциация и с Твин Пиксом, только тут никакой мистики.
Главного героя мучают самые настоящие раскольниковские кошмары и видения, каждый первый кажется шантажистом, а кроме того - давит тяжкий грех прошлого, задолго до убийства.
И вот, когда напряжение раскалено до предела, когда гайки закручены дальше некуда и вот-вот произойдет сюжетный мега-взрыв в виде раскрытия личности злыдня... вместо "ба-бах" происходит лишь легкий "пшик". Я понимаю, что не все фильмы могут заканчиваться шоком уровня "Брюс Уиллис - привидение", но всё же хоть какие-то эмоции должны возникать. Разве нет?
А помимо основной детективной линии здесь имеется еще и куча второстепенных, которые толком никуда не ведут. Да, это помогает погрузиться в атмосферу ирландской мухосрани и получше раскрыть персонажей, но всё же это временами сильно отвлекает, а под конец так и вовсе расстраивает своей незаконченностью...
Резюмируя, могу сказать, что это было очень увлекательное кино-путешествие, с массой интригующих моментов и повторов, но увы, финальный отрезок пути покрылся наледью и никто не посыпал его песочком, из-за чего общее впечатление сильно смазалось.
--
Работа над релизом:
Видеоряд скачан с видеохостинга YouTube
Авторский перевод - Вячеслав Котов
Спонсор перевода, сведение звука и сборка релиза - Darth_47
-Качество видео: VHSRip
Формат видео: MKV
Видео: MPEG4 Video (H264) 640x480 25fps 837 kb/s
Аудио 1: Dolby AC3 48000Hz stereo 192kbps Русский АО (Вячеслав Котов)
Аудио 2: AAC 44100Hz stereo 126kbps English-

MediaInfo

General
Unique ID                      : 126482514613029205246332032731251916176 (0x5F27A56F8E64C5AAD3C701E3ED4ABD90)
Complete name                  : Murder in Eden s01e01 (Episode One) 1991.x264.VHSRip.Rus-Eng.cinemaniacs.mkv
Format                         : Matroska
Format version                 : Version 4
File size                      : 420 MiB
Duration                       : 50 min 48 s
Overall bit rate               : 1 157 kb/s
Encoded date                   : UTC 2022-12-22 18:02:09
Writing application            : mkvmerge v35.0.0 ('All The Love In The World') 64-bit
Writing library                : libebml v1.3.9 + libmatroska v1.5.2
Video
ID                             : 1
Format                         : AVC
Format/Info                    : Advanced Video Codec
Format profile                 : Main@L3
Format settings                : CABAC / 1 Ref Frames
Format settings, CABAC         : Yes
Format settings, Reference fra : 1 frame
Codec ID                       : V_MPEG4/ISO/AVC
Duration                       : 50 min 48 s
Bit rate                       : 837 kb/s
Width                          : 640 pixels
Height                         : 480 pixels
Display aspect ratio           : 4:3
Frame rate mode                : Constant
Frame rate                     : 25.000 FPS
Color space                    : YUV
Chroma subsampling             : 4:2:0
Bit depth                      : 8 bits
Scan type                      : Progressive
Bits/(Pixel*Frame)             : 0.109
Stream size                    : 304 MiB (72%)
Title                          : cinemaniacs
Language                       : English
Default                        : Yes
Forced                         : No
Color range                    : Limited
Color primaries                : BT.709
Transfer characteristics       : BT.709
Matrix coefficients            : BT.709
Audio #1
ID                             : 2
Format                         : AC-3
Format/Info                    : Audio Coding 3
Commercial name                : Dolby Digital
Codec ID                       : A_AC3
Duration                       : 50 min 48 s
Bit rate mode                  : Constant
Bit rate                       : 192 kb/s
Channel(s)                     : 2 channels
Channel layout                 : L R
Sampling rate                  : 48.0 kHz
Frame rate                     : 31.250 FPS (1536 SPF)
Compression mode               : Lossy
Stream size                    : 69.8 MiB (17%)
Title                          : Русский АО (Вячеслав Котов)
Language                       : Russian
Service kind                   : Complete Main
Default                        : Yes
Forced                         : No
Audio #2
ID                             : 3
Format                         : AAC LC
Format/Info                    : Advanced Audio Codec Low Complexity
Codec ID                       : A_AAC-2
Duration                       : 50 min 48 s
Bit rate                       : 126 kb/s
Channel(s)                     : 2 channels
Channel layout                 : L R
Sampling rate                  : 44.1 kHz
Frame rate                     : 43.066 FPS (1024 SPF)
Compression mode               : Lossy
Stream size                    : 45.6 MiB (11%)
Language                       : English
Default                        : No
Forced                         : No
 

Текущее время: 05-Фев 04:48

Часовой пояс: UTC + 3