Ти Джей Хукер / T.J. Hooker (Клифф Боул) [1982, США, полицейское шоу, DVDRip] [1-5 из 5] (АО: Трамвай фильм)

Reply to topic
DL-List and Torrent activity
Size:  2.94 GB   |    Registered:  16 days   |    Completed:  3 times

Seeder not seen: 11 days

 
   
 
 
 
Author Message

Трамвай-фильм ®

Gender: Male

Longevity: 8 years

Posts: 1837

Location: Россия

Post 16-Jun-2018 17:36

[Quote]

Ти Джей Хукер / T.J. Hooker
Страна: США
Жанр: полицейское шоу
Год выпуска: 1982
Продолжительность: 5 х 01:14:09
Перевод: Авторский (одноголосый) Трамвай фильм
Режиссер: Клифф Боул
В ролях: Уильям Шатнер, Ричард Лоусон, Адриан Змед, Браин Патрик Кларк, Джон Глэдстейн, Келли Хармон, Джо МакДоннел
Описание: Опытный полицейский, ветеран "Зеленых беретов", Томас Джефферсон Хукер берет под опеку курсантов полицейской академии, что бы сделать из них отличных стражей порядка.


Качество видео: DVDRip
Видео: Xvid, 720x480, ~793 kb/s
Аудио: MP3, 2 ch, 128 kb/s

MediaInfo

Video
ID : 1
Format : MPEG-4 Visual
Format profile : Simple@L3
Format settings, BVOP : No
Format settings, QPel : No
Format settings, GMC : No warppoints
Format settings, Matrix : Default (H.263)
Codec ID : V_MS/VFW/FOURCC / XVID
Codec ID/Hint : XviD
Duration : 1 h 14 min
Bit rate : 793 kb/s
Width : 720 pixels
Height : 480 pixels
Display aspect ratio : 3:2
Frame rate mode : Constant
Frame rate : 29.970 (29970/1000) FPS
Original frame rate : 29.000 FPS
Standard : NTSC
Color space : YUV
Chroma subsampling : 4:2:0
Bit depth : 8 bits
Scan type : Progressive
Compression mode : Lossy
Bits/(Pixel*Frame) : 0.077
Stream size : 421 MiB (86%)
Writing library : XviD 1.2.1 (UTC 2008-12-04)
Default : Yes
Forced : No
Audio
ID : 2
Format : MPEG Audio
Format version : Version 1
Format profile : Layer 3
Mode : Joint stereo
Mode extension : MS Stereo
Codec ID : A_MPEG/L3
Codec ID/Hint : MP3
Duration : 1 h 14 min
Bit rate mode : Constant
Bit rate : 128 kb/s
Channel(s) : 2 channels
Sampling rate : 44.1 kHz
Frame rate : 38.281 FPS (1152 spf)
Compression mode : Lossy
Stream size : 67.9 MiB (14%)
Writing library : LAME3.98.2
Language : Russian
Default : Yes
Forced : No

Скриншоты




T.J. Hooker 1982.torrent
Torrent: Registered [ 2022-07-21 22:54 ]

Download .torrent

Download

15 KB

Status: checked
Completed: 3 times
Size: 2.94 GB
 
[Profile] [PM]

Faer

Gender: Male

Longevity: 7 years 7 months

Posts: 1046

Post 21-Jul-2022 22:54 (after 4 years 1 month)

[Quote]

Добавлены серии 2-5.
[Profile] [PM]

Трамвай-фильм ®

Gender: Male

Longevity: 8 years

Posts: 1837

Location: Россия

Post 22-Jul-2022 19:57 (after 21 hour)

[Quote]

32181Добавлены серии 2-5.
за подгонку спасибо, пытался я подогнать свой чистый голос на более качественную картинку, не вышло.
[Profile] [PM]

Faer

Gender: Male

Longevity: 7 years 7 months

Posts: 1046

Post 22-Jul-2022 19:59 (after 1 minute)

[Quote]

32193
32181Добавлены серии 2-5.
за подгонку спасибо, пытался я подогнать свой чистый голос на более качественную картинку, не вышло.
Запишем в очередь. Там правда 100+ фильмов, но может быть, когда-нибудь...
[Profile] [PM]
Display posts:    
Reply to topic

Current time is: 07-Aug 19:30

All times are UTC + 3



You cannot post new topics in this forum
You cannot reply to topics in this forum
You cannot edit your posts in this forum
You cannot delete your posts in this forum
You cannot vote in polls in this forum
You cannot attach files in this forum
You can download files in this forum