Камен Райдер V3 / Kamen Rider V3 / Сезон: 2 Серии: 1-52 из 52 (Сётаро Исиномори) [1973, токусацу, фантастика, DVDRip] (СТ: Manol4 [HenToku M]) (rus sub + Original)

Reply to topic
DL-List and Torrent activity
Size:  10.27 GB   |    Registered:  10 days   |    Completed:  2 times

Seeders:

Username ULR UL DL UL speed DL speed
pompilius 0 0- 0- 0- 0-
Faer 0 0- 0- 0- 0-
shows data only for the current session
 
   
 
 
 
Author Message

ManoL4 ®

Gender: Unknown

Longevity: 1 month 21 day

Posts: 7

Post 22-Oct-2021 12:12

[Quote]

Камен Райдер V3 / Kamen Rider V3
Год выпуска: 1973
Страна: Япония
Жанр: токусацу, фантастика
Продолжительность: 00:25:00
Перевод: субтитры Manol4 [HenToku M]
Русские субтитры: есть
Режиссёр: Сётаро Исиномори
Описание: Казами Широ (Kamen Rider V3) продолжает славное дело первых двух Райдеров по борьбе с Дестроном.
Качество: DVDRip
Формат: AVI
Видео: AVC, 716*480, 3:2, 1005 Кбит/с
Аудио: AAC, 44.1 КГц, 132Кбит/с, стерео
Субтитры: русские (хардсаб)
Работа над релизом:
Видео найдено на nyaa
Перевод: Manol4 [HenToku M]
Редактура: 1-6 Слава Черепянский [HenToku M], 7 Mr.Faer [Olskan], 8 Manol4 [HenToku M], 9-52 Mr.Faer [Olskan]
Оформление субтитров и караоке: Азамат Гараев [HenToku M]

MediaInfo

Общее
Полное имя : E:\Архив\Фильмы и сериалы\Kamen rider V3\Камен Райдер V3 Kamen Rider V3 - 07 (rus) (HenToku M).mp4
Формат : MPEG-4
Профиль формата : Base Media
Идентификатор кодека : isom (isom/iso2/avc1/mp41)
Размер файла : 198 Мбайт
Продолжительность : 24 м. 19 с.
Режим общего битрейта : Переменный
Общий поток : 1 140 Кбит/сек
Программа кодирования : Lavf58.45.100
Видео
Идентификатор : 1
Формат : AVC
Формат/Информация : Advanced Video Codec
Профиль формата : Main@L3
Настройки формата : CABAC / 1 Ref Frames
Параметр CABAC формата : Да
Параметр RefFrames формата : 1 кадр
Идентификатор кодека : avc1
Идентификатор кодека/Информация : Advanced Video Coding
Продолжительность : 24 м. 19 с.
Вид битрейта : Переменный
Битрейт : 1 005 Кбит/сек
Максимальный битрейт : 2 952 Кбит/сек
Ширина : 716 пикселей
Высота : 480 пикселей
Соотношение сторон : 3:2
Частота кадров : 23,976 (24000/1001) кадра/сек
Цветовое пространство : YUV
Субдискретизация насыщенности : 4:2:0
Битовая глубина : 8 бит
Тип развёртки : Прогрессивная
Бит/(Пиксели*Кадры) : 0.122
Размер потока : 175 Мбайт (88%)
Дата пометки : UTC 2021-08-08 16:22:43
Codec configuration box : avcC
Аудио
Идентификатор : 2
Формат : AAC LC
Формат/Информация : Advanced Audio Codec Low Complexity
Идентификатор кодека : mp4a-40-2
Продолжительность : 24 м. 19 с.
Вид битрейта : Постоянный
Битрейт : 132 Кбит/сек
Каналы : 2 канала
Channel layout : L R
Частота : 44,1 КГц
Частота кадров : 43,066 кадра/сек (1024 SPF)
Метод сжатия : С потерями
Размер потока : 22,8 Мбайт (11%)
Default : Да
Alternate group : 1
Дата пометки : UTC 2021-08-08 16:22:43

Скриншоты




cd Рип дополнительно залит на облако cd2
Kamen Rider V3.torrent
Torrent: Registered [ 2022-07-28 04:03 ]

Download .torrent

Download

31 KB

Status: checked
Completed: 2 times
Size: 10.27 GB
 
[Profile] [PM]

Starlay

Gender: Male

Longevity: 2 years 8 months

Posts: 326

Post 22-Oct-2021 15:48 (after 3 hours)

[Quote]

Спасибо! 5-я серия на облаке отсутствует.
[Profile] [PM]

ManoL4 ®

Gender: Unknown

Longevity: 1 month 21 day

Posts: 7

Post 22-Oct-2021 16:54 (after 1 hour 6 minutes)

[Quote]

30416Спасибо! 5-я серия на облаке отсутствует.
Исправлено.
[Profile] [PM]

bot

Post 16-Jun-2022 19:08 (after 7 months 25 days)

Топик был перенесен из форума Сериалы с Космоаэлиты (архив kosmoaelita.com) в форум HenToku M
Faer
 

ManoL4 ®

Gender: Unknown

Longevity: 1 month 21 day

Posts: 7

Post 17-Jun-2022 03:49 (after 7 months 25 days)

[Quote]

На облако добавлены серии 22-30!
[Profile] [PM]

ManoL4 ®

Gender: Unknown

Longevity: 1 month 21 day

Posts: 7

Post 14-Jul-2022 13:58 (after 27 days)

[Quote]

В торрент добавлены серии 22-42!
На облако добавлены серии 31-42 (ещё загружаются)!

Comment from Faer


Я сегодня отредактировал 43 серию, скоро закончим сериал.
[Profile] [PM]

Faer

Gender: Male

Longevity: 7 years 7 months

Posts: 1046

Post 24-Jul-2022 20:11 (after 10 days)

[Quote]

Обновление уже очень скоро. Переведены все серии, отредактированы 43-50. Две серии до финала. 43-51, последняя серия осталась.
[Profile] [PM]

Faer

Gender: Male

Longevity: 7 years 7 months

Posts: 1046

Post 27-Jul-2022 02:23 (after 2 days 6 hours)

[Quote]

Все серии добавлены на облако. Обновление раздачи будет... Чуть попозже.
[Profile] [PM]

ManoL4 ®

Gender: Unknown

Longevity: 1 month 21 day

Posts: 7

Post 28-Jul-2022 04:04 (after 1 day 1 hour)

[Quote]

Добавлены серии 43-52, проект закончен!
[Profile] [PM]
Display posts:    
Reply to topic

Current time is: 07-Aug 19:09

All times are UTC + 3



You cannot post new topics in this forum
You cannot reply to topics in this forum
You cannot edit your posts in this forum
You cannot delete your posts in this forum
You cannot vote in polls in this forum
You cannot attach files in this forum
You can download files in this forum