Поиск и скачивание исходников

Go to page :  1, 2, 3  Next

Reply to topic
 
Author Message

Faer ®

Gender: Male

Longevity: 7 years 7 months

Posts: 1046

Post 17-Jun-2022 18:11

[Quote]

Возрождаем старую тему поиска.

Поиск звуковых дорожек / субтитров

https://www.srtfiles.com - поисковик субтитров по базам.
http://www.digital-digest.com - поисковик субтитров по базам.
http://www.dxp.ru - Нужна регистрация
http://subtitry.ru
http://www.opensubtitles.org/ru
http://subscene.com
http://www.subtitlesource.org
http://www.moviesubtitles.org
http://www.moviesubtitles.net
http://www.addic7ed.com

Поиск переводов на аниме

http://www.nyaa.si - всё-в-одном что нужно от аниме, можно найти можно найти la и дорамы (торент-свалка по сути).
http://tokyotosho.info - аналогично.
http://fansubs.ru - русаб на аниме.
http://uanime.org.ua - укрсаб на аниме.
http://asiandvdclub.org - умер в декабре 2021 года.
http://bakabt.me - закрытый трекер, регистрации нет.
http://animereactor.ru - умер.

Поиск фильмов/сериалов

Открытые трекеры:
rarbg
thepirebay
yts
limetorrent
Закрытые:
tv-vault
cinemageddon
karagarga

Для скачивания с ютуба/вконтакта/etc

Устанавливаемые на комп:
Maxton browser + его встроенный персер
MediaHuman YouTube Downloader
Онлайн:
https://www.y2mate.com/en371
https://work.220youtube.ru/1/download
https://notube.net/ru/youtube-app-v19


Last edited by Faer on 2022-06-26 12:09; edited 5 times in total
[Profile] [PM]

maks_lev

Gender: Male

Longevity: 8 months 13 days

Posts: 205

Location: Тверь

Post 18-Jun-2022 02:05 (after 7 hours)

[Quote]

31689На няшке лежит рип 768x576 и английские субтитры, но я не могу их скачать, т.к. нет сидов. Возможно, когда-нибудь...
попробую выкачать)
[Profile] [PM]

Faer ®

Gender: Male

Longevity: 7 years 7 months

Posts: 1046

Post 18-Jun-2022 18:25 (after 16 hours)

[Quote]

Козерог / Capricorn (Иманиси Такаси) [1991, LDRip]
На няшке лежит рип 768x576 и английские субтитры, но я не могу их скачать, т.к. нет сидов. Возможно, когда-нибудь...

Также разыскиваются живыми или переведёнными:
1. Iria - Zeiram the animation (イ・リ・ア ゼイラム)
Французский DVD9, качество должно быть получше чем у уже выложенных рипов (плюс допы). На няшке 0 сидов уже который день.

2. Русские субтитры на Приведение со снятой кожей / Skin Striperess / Sexy Ghost / Skinned Ghost / Lat Pei Gwai
Аналогичная ситуация, на рутрекере 0 сидов. Нужны только субтитры.

3. Поул Позиция / Pole Position (Мультсериал)
Вообще не уверен, что сид когда-то существовал.


Last edited by Faer on 2022-06-26 11:58; edited 4 times in total
[Profile] [PM]

Starlay

Gender: Male

Longevity: 2 years 8 months

Posts: 326

Post 18-Jun-2022 20:09 (after 1 hour 43 minutes)

[Quote]

3. Поул Позиция / Pole Position (Мультсериал)
https://cloud.mail.ru/public/8c9H/PDFyg6wAC
Переведённый.
Он же: https://www.cinemaniacs.club/viewtopic.php?t=2532
[Profile] [PM]

Starlay

Gender: Male

Longevity: 2 years 8 months

Posts: 326

Post 18-Jun-2022 20:22 (after 13 minutes)

[Quote]

2. Русские субтитры на Приведение со снятой кожей / Skin Striperess / Sexy Ghost / Skinned Ghost / Lat Pei Gwai
Аналогичная ситуация, на рутрекере 0 сидов. Нужны только субтитры.
У меня стянулись. Отправил русские сабы на почту.
[Profile] [PM]

Faer ®

Gender: Male

Longevity: 7 years 7 months

Posts: 1046

Post 18-Jun-2022 20:32 (after 10 minutes)

[Quote]

31695
2. Русские субтитры на Приведение со снятой кожей / Skin Striperess / Sexy Ghost / Skinned Ghost / Lat Pei Gwai
Аналогичная ситуация, на рутрекере 0 сидов. Нужны только субтитры.
У меня стянулись. Отправил русские сабы на почту.
Огромное спасибо! Пришло, скачал!
31694
3. Поул Позиция / Pole Position (Мультсериал)
https://cloud.mail.ru/public/8c9H/PDFyg6wAC
Переведённый.
Он же: https://www.cinemaniacs.club/viewtopic.php?t=2532
Я хочу найти DVD Remux, который (якобы) был в той раздаче на nyaa.
На архив.орг лежит немного другой рип, по качеству +/- как на маньяках.

сравнение Mediainfo

Видео:
archive.org:
Идентификатор кодека : XVID
Битрейт : 1 900 Кбит/с
От Трамвая:
Format : AVC
Bit rate : 700 kb/s
Звук:
archive.org:
Идентификатор кодека/Подсказка : MP3
Битрейт : 160 Кбит/сек
От Трамвая:
Format : AAC
Bit rate : 127 kb/s

Полное Mediainfo с archive.org

Общее
Полное имя : D:\Загрузки\01_The_Code.avi
Формат : AVI
Формат/Информация : Audio Video Interleave
Размер файла : 362 Мбайт
Продолжительность : 24 м. 25 с.
Общий поток : 2 072 Кбит/сек
IsTruncated : Yes
Видео
Идентификатор : 0
Формат : MPEG-4 Visual
Профиль формата : Simple@L3
Параметр BVOP формата : Нет
Параметр QPel формата : Нет
Параметр GMC формата : Без точки перехода
Параметр матрицы формата : Default (H.263)
Идентификатор кодека : XVID
Идентификатор кодека/Подсказка : XviD
Продолжительность : 24 м. 25 с.
Продолжительность оригинала : 24 м. 25 с.
Битрейт : 1 900 Кбит/сек
Ширина : 640 пикселей
Высота : 480 пикселей
Соотношение сторон : 4:3
Частота кадров : 25,000 кадров/сек
Цветовое пространство : YUV
Субдискретизация насыщенности : 4:2:0
Битовая глубина : 8 бит
Тип развёртки : Прогрессивная
Метод сжатия : С потерями
Бит/(Пиксели*Кадры) : 0.247
Размер потока : 332 Мбайт (92%)
Библиотека кодирования : XviD 1.1.2 (UTC 2006-11-01)
Аудио
Идентификатор : 1
Формат : MPEG Audio
Версия формата : Version 1
Профиль формата : Layer 3
Настройки формата : Joint stereo / MS Stereo
Идентификатор кодека : 55
Идентификатор кодека/Подсказка : MP3
Продолжительность : 24 м. 25 с.
Вид битрейта : Постоянный
Битрейт : 160 Кбит/сек
Каналы : 2 канала
Частота : 44,1 КГц
Метод сжатия : С потерями
Размер потока : 28,0 Мбайт (8%)
Выравнивание : Разделение по промежуткам
Продолжительность промежутка : 26 мс. (0,65 видеокадр)
Время предзагрузки промежутка : 101 мс.
[Profile] [PM]

Starlay

Gender: Male

Longevity: 2 years 8 months

Posts: 326

Post 18-Jun-2022 20:37 (after 4 minutes)

[Quote]

Я хочу найти DVD Remux, который (якобы) был в той раздаче на nyaa.
Тады ой. ) Я думал:
Также разыскиваются живыми или переведёнными:
На архив.орг лежит немного другой рип, по качеству +/- как на маньяках.
Да, судя по размеру файлов, то же самое.
[Profile] [PM]

Starlay

Gender: Male

Longevity: 2 years 8 months

Posts: 326

Post 18-Jun-2022 20:47 (after 10 minutes)

[Quote]

Я хочу найти DVD Remux, который (якобы) был в той раздаче на nyaa.
Есть в продаже сами dvd на Амазоне, eBay и др., но цены...
Тут даже блюр:
https://www.monsterlandmedia.com/?product=pole-position-the-complete-series-13-episodes-in-720p-hd
[Profile] [PM]

maks_lev

Gender: Male

Longevity: 8 months 13 days

Posts: 205

Location: Тверь

Post 19-Jun-2022 00:28 (after 3 hours)

[Quote]

31693Iria - Zeiram the animation DVD9
на рутрекере есть две раздачи:
https://rutracker.org/forum/viewtopic.php?t=3177749
https://rutracker.org/forum/viewtopic.php?t=1097740
Сиды есть. Не знаю чем отличаются)
31693Приведение со снятой кожей
Starlay рулит!) Будет раздача фильма?)))
31693Поул Позиция
нашёл бдрип сериала на 6+гб, и сиды вроде как есть, но пока не качается(
31689Козерог
несколько процентов время от времени подкачивается, но нет уверенности что докачается(


Last edited by maks_lev on 2022-06-19 01:41; edited 1 time in total
[Profile] [PM]

Faer ®

Gender: Male

Longevity: 7 years 7 months

Posts: 1046

Post 19-Jun-2022 00:41 (after 12 minutes)

[Quote]

31701
31693Iria - Zeiram the animation DVD9
на рутрекере есть две раздачи:
https://rutracker.org/forum/viewtopic.php?t=3177749
https://rutracker.org/forum/viewtopic.php?t=1097740
Сиды есть. Не знаю чем отличаются)
На французском DVD9 были допы ещё. Но ладно, придётся без них. Спасибо за ссылку вторую, я не нашел эту раздачу, из-за двоеточия вместо тире в названии.
31701
у меня увы не скачалось,Starlay рулит!) Будет раздача фильма?)))
Да, как только очередь подойдёт. Надо ещё одно аниме собрать "воедино".
31701
нашёл бдрип сериала на 6+гб, и сиды вроде как есть, но пока не качается(
Может быть, когда-нибудь...
31701
несколько процентов время от времени подкачивается, но нет уверенности что докачается(
А у меня вообще не качается, так и стоит на 10.9%
[Profile] [PM]

maks_lev

Gender: Male

Longevity: 8 months 13 days

Posts: 205

Location: Тверь

Post 19-Jun-2022 21:08 (after 20 hours)

[Quote]

Козерога выкачал, ссылку на облако выслал в лс.)
[Profile] [PM]

maks_lev

Gender: Male

Longevity: 8 months 13 days

Posts: 205

Location: Тверь

Post 20-Jun-2022 23:42 (after 1 day 2 hours)

[Quote]

Поул Позиция
нашёл бдрип сериала на 6+гб
выкачал, ссылку на облако выслал в лс.)
[Profile] [PM]

Darth_47

Gender: Male

Longevity: 3 years 3 months

Posts: 1268

Post 20-Jun-2022 23:46 (after 3 minutes)

[Quote]

Если уж тут собрались такие мастера по поиску исходников, то осмелюсь попросить поискать этот мини-сериал в виде исходного DVD - https://www.cinemaniacs.club/viewtopic.php?t=197
Очень он меня впечатлил!
[Profile] [PM]

maks_lev

Gender: Male

Longevity: 8 months 13 days

Posts: 205

Location: Тверь

Post 21-Jun-2022 11:02 (after 11 hours)

[Quote]

31727мини-сериал в виде исходного DVD
https://kickass.ws/t0-Blindpassasjer_av_Bing___Brin...1-tt3309650.html
вот тут он есть, и вроде 1 сид есть, но сайт какой-то замороченный, хрен с него магнет ссылку даже возьмёшь... одна реклама всё на английском - когдато там что-то брал, но походу сейчас никак. Кто в английском шарит попробуйте)
https://thepiratebay10.org/torrent/3309650/Blindpas..._(NRK-TV_prod__1
на пиратбее он тоже есть, но сидов нет(
[Profile] [PM]

Starlay

Gender: Male

Longevity: 2 years 8 months

Posts: 326

Post 21-Jun-2022 17:19 (after 6 hours)

[Quote]

вот тут он есть, и вроде 1 сид есть, но сайт какой-то замороченный, хрен с него магнет ссылку даже возьмёшь...
Да, это так. Но важно то, что там указано про исходник (по-норвежски) "VHS-запись, конвертированная в DVD". Скорее всего, не оригинальный, а самопальный DVD.
[Profile] [PM]

Starlay

Gender: Male

Longevity: 2 years 8 months

Posts: 326

Post 21-Jun-2022 19:46 (after 2 hours 27 minutes)

[Quote]

Darth_47, по Blindpassasjer написал в личку.
[Profile] [PM]

maks_lev

Gender: Male

Longevity: 8 months 13 days

Posts: 205

Location: Тверь

Post 21-Jun-2022 19:46 (after 12 seconds)

[Quote]

31742самопальный DVD
естественно я это видел, но другого варианта DVD я на торрентах не встречал.
Флаг тебе в руки, барабан на шею) Ржака Найди оригинальный)
[Profile] [PM]

Starlay

Gender: Male

Longevity: 2 years 8 months

Posts: 326

Post 21-Jun-2022 19:54 (after 7 minutes)

[Quote]

Оригинальные есть в продаже, порядка 15 евро. Но не на Амазоне, а в местных конторах, поэтому без доставки за рубеж, и, стало быть, не катит. Но есть другой вариант, я Дарту в личку о нём сообщил.
[Profile] [PM]

Starlay

Gender: Male

Longevity: 2 years 8 months

Posts: 326

Post 21-Jun-2022 19:58 (after 4 minutes)

[Quote]

31744но другого варианта DVD я на торрентах не встречал
Технически может быть выложена папка оригинального двд либо мкв-ремукс оригинального двд. Под самопальным я имел в виду то, что кто-то сам переконвертировал VHS-рипы в двд. Размер видео увеличился, но качество, не думаю, что шибко при этом улучшилось.


Last edited by Starlay on 2022-06-21 22:34; edited 1 time in total
[Profile] [PM]

Starlay

Gender: Male

Longevity: 2 years 8 months

Posts: 326

Post 21-Jun-2022 20:23 (after 24 minutes)

[Quote]

maks_lev, а как вы на такое смотрите:
Video
ID : 1
Format : AVC
Format/Info : Advanced Video Codec
Format profile : High@L3.1
Format settings : CABAC / 5 Ref Frames
Format settings, CABAC : Yes
Format settings, Reference frames : 5 frames
Format settings, GOP : M=1, N=125
Codec ID : avc1
Codec ID/Info : Advanced Video Coding
Duration : 37 min 10 s
Bit rate : 2 250 kb/s
Width : 1 280 pixels
Height : 720 pixels
Display aspect ratio : 16:9
Frame rate mode : Constant
Frame rate : 25.000 FPS
Color space : YUV
Chroma subsampling : 4:2:0
Bit depth : 8 bits
Scan type : Progressive
Bits/(Pixel*Frame) : 0.098
Stream size : 597 MiB (93%)
Writing library : x264 core 146
Encoding settings : cabac=1 / ref=5 / deblock=1:0:0 / analyse=0x3:0x113 / me=hex / subme=7 / psy=0 / mixed_ref=1 / me_range=16 / chroma_me=1 / trellis=1 / 8x8dct=1 / cqm=0 / deadzone=21,11 / fast_pskip=1 / chroma_qp_offset=0 / threads=7 / lookahead_threads=1 / sliced_threads=0 / nr=0 / decimate=1 / interlaced=0 / paff=0 / bluray_compat=0 / constrained_intra=0 / bframes=3 / b_pyramid=2 / b_adapt=1 / b_bias=0 / direct=1 / weightb=1 / open_gop=0 / weightp=2 / keyint=125 / keyint_min=12 / scenecut=0 / intra_refresh=0 / rc_lookahead=60 / rc=abr / mbtree=1 / bitrate=2250 / ratetol=1.0 / qcomp=0.60 / qpmin=0 / qpmax=69 / qpstep=4 / vbv_maxrate=2812 / vbv_bufsize=4500 / nal_hrd=none / filler=0 / ip_ratio=1.00 / aq=2:1.00
Codec configuration box : avcC
Audio
ID : 2
Format : AAC LC
Format/Info : Advanced Audio Codec Low Complexity
Codec ID : mp4a-40-2
Duration : 37 min 10 s
Duration_LastFrame : -5 ms
Bit rate mode : Constant
Bit rate : 160 kb/s
Channel(s) : 2 channels
Channel layout : L R
Sampling rate : 48.0 kHz
Frame rate : 46.875 FPS (1024 SPF)
Compression mode : Lossy
Stream size : 42.6 MiB (7%)
Default : Yes
Alternate group : 1
И для сравнения у нас:
Video
ID : 1
Format : MPEG-4 Visual
Format profile : Advanced Simple@L5
Format settings : BVOP1 / Custom Matrix
Format settings, BVOP : 1
Format settings, QPel : No
Format settings, GMC : No warppoints
Format settings, Matrix : Custom
Codec ID : V_MS/VFW/FOURCC / XVID
Codec ID/Hint : XviD
Duration : 1 h 48 min
Bit rate : 735 kb/s
Width : 512 pixels
Height : 384 pixels
Display aspect ratio : 4:3
Frame rate mode : Constant
Frame rate : 25.000 FPS
Color space : YUV
Chroma subsampling : 4:2:0
Bit depth : 8 bits
Scan type : Progressive
Compression mode : Lossy
Bits/(Pixel*Frame) : 0.150
Stream size : 571 MiB (68%)
Writing library : XviD 1.2.0.dev47 (UTC 2006-11-01)
Default : Yes
Forced : No


Last edited by Starlay on 2022-06-21 22:33; edited 1 time in total
[Profile] [PM]

maks_lev

Gender: Male

Longevity: 8 months 13 days

Posts: 205

Location: Тверь

Post 21-Jun-2022 20:54 (after 30 minutes)

[Quote]

31747tv.nrk.no
я так и не разобрался как выципить с этого сайта видео, форумы все на английском, какой-то толи плагин толи прога нужна работающая через командную строку или хз.
У кого есть возможность выкачать конечно качество там 1024*720 вроде, что гораздо лучше чем двдрип.
[Profile] [PM]

Starlay

Gender: Male

Longevity: 2 years 8 months

Posts: 326

Post 21-Jun-2022 20:58 (after 4 minutes)

[Quote]

я так и не разобрался как выципить с этого сайта видео
Уже не нужно разбираться. ) МедиаИнфо же не с пустого места.
[Profile] [PM]

maks_lev

Gender: Male

Longevity: 8 months 13 days

Posts: 205

Location: Тверь

Post 21-Jun-2022 21:18 (after 19 minutes)

[Quote]

31749Уже не нужно разбираться
тогда пожалуйста инструкцию мне как это делать)
[Profile] [PM]

Darth_47

Gender: Male

Longevity: 3 years 3 months

Posts: 1268

Post 21-Jun-2022 21:38 (after 20 minutes)

[Quote]

31750
31749Уже не нужно разбираться
тогда пожалуйста инструкцию мне как это делать)
Я думаю, Старлей имел в виду, что сможет просто скинуть тебе файлы, которые ему удалось скачать) И тебе не надо будет с этим париться.
[Profile] [PM]

Starlay

Gender: Male

Longevity: 2 years 8 months

Posts: 326

Post 21-Jun-2022 21:48 (after 9 minutes)

[Quote]

которые ему удалось скачать)
Я этого не утверждал. )))
[Profile] [PM]

Starlay

Gender: Male

Longevity: 2 years 8 months

Posts: 326

Post 21-Jun-2022 22:05 (after 17 minutes)

[Quote]

maks_lev, Дарт забраковал эти видео с норвежского ТВ. У него есть вариант лучше. Так что отбой тревоги.
[Profile] [PM]

Starlay

Gender: Male

Longevity: 2 years 8 months

Posts: 326

Post 21-Jun-2022 22:32 (after 26 minutes)

[Quote]

31751Я думаю, Старлей имел в виду, что сможет просто скинуть тебе файлы, которые ему удалось скачать)
А я думаю, что Макса интересуют не столько файлы, сколько сам процесс. )
[Profile] [PM]

maks_lev

Gender: Male

Longevity: 8 months 13 days

Posts: 205

Location: Тверь

Post 21-Jun-2022 22:53 (after 21 minute)

[Quote]

31754 сколько сам процесс
угу)
[Profile] [PM]

Faer ®

Gender: Male

Longevity: 7 years 7 months

Posts: 1046

Post 22-Jun-2022 00:48 (after 1 hour 55 minutes)

[Quote]

31755
31754 сколько сам процесс
угу)
Трамвай мне советовал браузер Maxton, у него есть сниффер ресурсов. Удобная штука. Правда для ютуба больше не работает, т.к. там видео пилят на маленькие кусочки. Но для прочих сайтов вполне пойдёт.
[Profile] [PM]

pompilius

Gender: Male

Longevity: 4 years 9 months

Posts: 592

Post 22-Jun-2022 07:01 (after 6 hours)

[Quote]

31748
31747tv.nrk.no
я так и не разобрался как выципить с этого сайта видео, форумы все на английском, какой-то толи плагин толи прога нужна работающая через командную строку или хз.
У кого есть возможность выкачать конечно качество там 1024*720 вроде, что гораздо лучше чем двдрип.
Используй Internet Download Manager (IDM)

Internet Download Manager

Internet Download Manager (IDM) – Лучший менеджер загрузки файлов. Позволяет увеличить скорость загрузки, поддерживает докачку и загрузку по расписанию.
Язык интерфейса: Multi/Русский
Сис. требования: Windows 7/8/10
Разрядность: 32bit/64bit
Версия: 6.41.2
Лечение: вылечено
https://dropmefiles.com/i0dvX


Last edited by pompilius on 2022-06-22 10:41; edited 1 time in total
[Profile] [PM]
Display posts:    
Reply to topic

Current time is: 07-Aug 18:25

All times are UTC + 3



You cannot post new topics in this forum
You cannot reply to topics in this forum
You cannot edit your posts in this forum
You cannot delete your posts in this forum
You cannot vote in polls in this forum
You cannot attach files in this forum
You cannot download files in this forum