Молчаливый Мобиус / Silent Mobius: the Motion Picture (Томидзава Кадзуо) [1991, Япония, приключения, фантастика, ужасы, драма, BDRip-1080p] (ЛД: Azazel&Noir) (АО: Дионик) (СТ: AlexPro1234) (Sub Rus)

Reply to topic
 
Author Message

Faer ®

Gender: Male

Longevity: 7 years 7 months

Posts: 1046

Post 24-Jun-2022 13:01

[Quote]

Молчаливый Мобиус / Silent Mobius: the Motion Picture
Страна: Япония
Жанр: приключения, фантастика, ужасы, драма
Год выпуска: 1991
Продолжительность: 00:53:42
Перевод 1: Любительский (двухголосый) Azazel&Noir
Перевод 2: Авторский (одноголосый) Дионик
Перевод 3: Субтитры AlexPro1234
Cубтитры: русские
Режиссер: Томидзава Кадзуо
Описание: 2024 год, Токио. Группа девушек со сверхспособностями из спецотдела АМР борется с монстрами из другого мира. Одна из них Кацуми Ликёр. Она родилась на Гавайях, где до недавнего времени жила, но болезнь матери вынуждает ее приехать в Токио. И вот по пути в гостиницу ее такси застревает в пробке. Она решает добираться пешком, ее манит пустынный темный переулок, где сталкивается с ужасным монстром и двумя девушками, пытающимися убить его. Немногим позже она встречает все в том же переулке начальника АМР Ралли Шейенн, которая похоже ждала Кацуми, хотя они никогда и не встречались, Ралли предлагает присоединиться к отделу, но Кацуми отказывается верить в магию, монстров и другие миры...


Качество видео: BDRip-1080p
Формат видео: MKV
Видео: AVC, 1920x1080, 16:9, 23.976fps, 6986 Кбит/с
Аудио 1: MP3, 44.1КГц, 192 Кбит/с, стерео - Azazel&Noir
Аудио 2: AAC, 44.1КГц, 132 Кбит/с, стерео - Дионик
Аудио 3: AAC, 44.1КГц, 188 Кбит/с, стерео - Оригинал
Формат субтитров: softsub (SSA/ASS)

MediaInfo

Общее
Уникальный идентификатор : 212151048718505149667366034854820915604 (0x9F9ACE455EE44E7EBC4588A9D6AF2994)
Полное имя : C:\Users\ИТО\Desktop\Silent Mobius (1991).mkv
Формат : Matroska
Версия формата : Version 4
Размер файла : 2,81 Гбайт
Продолжительность : 53 м. 42 с.
Общий поток : 7 485 Кбит/сек
Название фильма : Silent Mobius 1. The Motion Picture [1991]
Дата кодирования : UTC 2022-06-24 09:21:26
Программа кодирования : mkvmerge v52.0.0 ('Secret For The Mad') 64-bit
Библиотека кодирования : libebml v1.4.1 + libmatroska v1.6.2
Обложка : Yes
Attachments : cover.jpg / trebucbd.ttf / trebucbi.ttf
Видео
Идентификатор : 1
Формат : AVC
Формат/Информация : Advanced Video Codec
Профиль формата : High 10@L5.2
Настройки формата : CABAC / 16 Ref Frames
Параметр CABAC формата : Да
Параметр RefFrames формата : 16 кадров
Идентификатор кодека : V_MPEG4/ISO/AVC
Продолжительность : 53 м. 34 с.
Битрейт : 6 986 Кбит/сек
Ширина : 1 920 пикселей
Высота : 1 080 пикселей
Соотношение сторон : 16:9
Режим частоты кадров : Постоянный
Частота кадров : 23,976 (24000/1001) кадра/сек
Стандарт вещания : NTSC
Цветовое пространство : YUV
Субдискретизация насыщенности : 4:2:0
Битовая глубина : 10 бит
Тип развёртки : Прогрессивная
Бит/(Пиксели*Кадры) : 0.141
Размер потока : 2,61 Гбайт (93%)
Библиотека кодирования : x264 core 157 r2970+47 cae74a0 t_mod_New [0-bit@all X86_64]
Настройки программы : cabac=1 / ref=16 / deblock=1:1:0 / analyse=0x3:0x133 / me=tesa / subme=10 / psy=1 / fade_compensate=0.80 / psy_rd=0.60:0.00 / mixed_ref=1 / me_range=24 / chroma_me=1 / trellis=2 / 8x8dct=1 / cqm=0 / deadzone=21,11 / fast_pskip=0 / chroma_qp_offset=-2 / threads=24 / lookahead_threads=6 / sliced_threads=0 / nr=0 / decimate=1 / interlaced=0 / bluray_compat=0 / constrained_intra=0 / fgo=0 / bframes=16 / b_pyramid=2 / b_adapt=2 / b_bias=0 / direct=3 / weightb=1 / open_gop=1 / weightp=2 / keyint=250 / keyint_min=23 / scenecut=40 / intra_refresh=0 / rc_lookahead=60 / rc=crf / mbtree=1 / crf=16.5000 / qcomp=0.76 / qpmin=0:0:0 / qpmax=81:81:81 / qpstep=4 / vbv_maxrate=720000 / vbv_bufsize=720000 / crf_max=0.0 / nal_hrd=none / filler=0 / ip_ratio=1.40 / aq=3:0.78 / aq-sensitivity=10.00 / aq-factor=1.00:1.00:1.00 / aq2=1:0.88 / aq2-sensitivity=17.00 / aq2-factor=1.00:1.00:1.00 / aq3=4:[0.39:0.39]:[0.39:0.39]:[0.39:0.39]:[0.39:0.39] / aq3-sensitivity=10.00 / aq3-factor=[1.00:1.00]:[1.00:1.00]:[1.00:1.00] / aq3-boundary=768:256:96
Язык : English
Default : Да
Forced : Нет
Цветовой диапазон : Limited
Основные цвета : BT.709
Характеристики трансфера : BT.709
Коэффициенты матрицы : BT.709
Аудио #1
Идентификатор : 2
Формат : MPEG Audio
Версия формата : Version 1
Профиль формата : Layer 3
Настройки формата : Joint stereo
Идентификатор кодека : A_MPEG/L3
Идентификатор кодека/Подсказка : MP3
Продолжительность : 53 м. 42 с.
Вид битрейта : Постоянный
Битрейт : 192 Кбит/сек
Каналы : 2 канала
Частота : 44,1 КГц
Частота кадров : 38,281 кадров/сек (1152 SPF)
Метод сжатия : С потерями
Размер потока : 73,7 Мбайт (3%)
Заголовок : Azazel&Noir
Язык : Russian
Default : Да
Forced : Нет
Аудио #2
Идентификатор : 3
Формат : AAC LC
Формат/Информация : Advanced Audio Codec Low Complexity
Идентификатор кодека : A_AAC-2
Продолжительность : 53 м. 42 с.
Битрейт : 132 Кбит/сек
Каналы : 2 канала
Channel layout : L R
Частота : 44,1 КГц
Частота кадров : 43,066 кадра/сек (1024 SPF)
Метод сжатия : С потерями
Размер потока : 50,3 Мбайт (2%)
Заголовок : Дионик
Язык : Russian
Default : Нет
Forced : Нет
Аудио #3
Идентификатор : 4
Формат : AAC LC
Формат/Информация : Advanced Audio Codec Low Complexity
Идентификатор кодека : A_AAC-2
Продолжительность : 53 м. 34 с.
Битрейт : 188 Кбит/сек
Каналы : 2 канала
Channel layout : L R
Частота : 44,1 КГц
Частота кадров : 43,066 кадра/сек (1024 SPF)
Метод сжатия : С потерями
Задержка видео : 22 мс.
Размер потока : 71,9 Мбайт (3%)
Язык : Japanese
Default : Нет
Forced : Нет
Текст
Идентификатор : 5
Формат : ASS
Идентификатор кодека : S_TEXT/ASS
Идентификатор кодека/Информация : Advanced Sub Station Alpha
Продолжительность : 52 м. 54 с.
Битрейт : 117 бит/сек
Count of elements : 553
Метод сжатия : Без потерь
Размер потока : 45,6 Кбайт (0%)
Заголовок : AlexPro1234
Язык : Russian
Default : Да
Forced : Нет

Скриншоты




[Profile] [PM]

maks_lev

Gender: Male

Longevity: 8 months 13 days

Posts: 205

Location: Тверь

Post 26-Jun-2022 11:30 (after 1 day 22 hours)

[Quote]

отрыл у себя в коллекции этот мульт. добавил Дионика, но у меня походу толи исходник другой, но есть английские сабы ещё и размер чуть больше) хотел поддержать раздачу, а не вышло)

MediaInfo

Формат : Matroska
Версия формата : Version 4
Размер файла : 2,81 Гбайт
Продолжительность : 53 м. 42 с.
Общий поток : 7 484 Кбит/сек
Название фильма : Silent Mobius 1. The Motion Picture [1991]
Дата кодирования : UTC 2022-06-26 08:12:00
Программа кодирования : mkvmerge v67.0.0 ('Under Stars') 64-bit
Библиотека кодирования : libebml v1.4.2 + libmatroska v1.6.4
Attachments : trebucbd.ttf / trebucbi.ttf / EurostileLTStd.otf
Видео
Идентификатор : 1
Формат : AVC
Формат/Информация : Advanced Video Codec
Профиль формата : High 10@L5.2
Настройки формата : CABAC / 16 Ref Frames
Параметр CABAC формата : Да
Параметр RefFrames формата : 16 кадров
Идентификатор кодека : V_MPEG4/ISO/AVC
Продолжительность : 53 м. 34 с.
Битрейт : 6 986 Кбит/сек
Ширина : 1 920 пикселей
Высота : 1 080 пикселей
Соотношение сторон : 16:9
Режим частоты кадров : Постоянный
Частота кадров : 23,976 (24000/1001) кадра/сек
Стандарт вещания : NTSC
Цветовое пространство : YUV
Субдискретизация насыщенности : 4:2:0
Битовая глубина : 10 бит
Тип развёртки : Прогрессивная
Бит/(Пиксели*Кадры) : 0.141
Размер потока : 2,61 Гбайт (93%)
Библиотека кодирования : x264 core 157 r2970+47 cae74a0 t_mod_New [0-bit@all X86_64]
Настройки программы : cabac=1 / ref=16 / deblock=1:1:0 / analyse=0x3:0x133 / me=tesa / subme=10 / psy=1 / fade_compensate=0.80 / psy_rd=0.60:0.00 / mixed_ref=1 / me_range=24 / chroma_me=1 / trellis=2 / 8x8dct=1 / cqm=0 /
deadzone=21,11 / fast_pskip=0 / chroma_qp_offset=-2 / threads=24 / lookahead_threads=6 / sliced_threads=0 / nr=0 / decimate=1 / interlaced=0 / bluray_compat=0 / constrained_intra=0 / fgo=0 / bframes=16 / b_pyramid=2 / b_adapt=2 / b_bias=0 / direct=3 /
weightb=1 / open_gop=1 / weightp=2 / keyint=250 / keyint_min=23 / scenecut=40 / intra_refresh=0 / rc_lookahead=60 / rc=crf / mbtree=1 / crf=16.5000 / qcomp=0.76 / qpmin=0:0:0 / qpmax=81:81:81 / qpstep=4 / vbv_maxrate=720000 / vbv_bufsize=720000
/ crf_max=0.0 / nal_hrd=none / filler=0 / ip_ratio=1.40 / aq=3:0.78 / aq-sensitivity=10.00 / aq-factor=1.00:1.00:1.00 / aq2=1:0.88 / aq2-sensitivity=17.00 / aq2-factor=1.00:1.00:1.00 / aq3=4:[0.39:0.39]:[0.39:0.39]:[0.39:0.39]:[0.39:0.39] / aq3-
sensitivity=10.00 / aq3-factor=[1.00:1.00]:[1.00:1.00]:[1.00:1.00] / aq3-boundary=768:256:96
Язык : English
Default : Да
Forced : Нет
Цветовой диапазон : Limited
Основные цвета : BT.709
Характеристики трансфера : BT.709
Коэффициенты матрицы : BT.709
Аудио #1
Идентификатор : 2
Формат : MPEG Audio
Версия формата : Version 1
Профиль формата : Layer 3
Настройки формата : Joint stereo
Идентификатор кодека : A_MPEG/L3
Идентификатор кодека/Подсказка : MP3
Продолжительность : 53 м. 42 с.
Вид битрейта : Постоянный
Битрейт : 192 Кбит/сек
Каналы : 2 канала
Частота : 44,1 КГц
Частота кадров : 38,281 кадров/сек (1152 SPF)
Метод сжатия : С потерями
Размер потока : 73,7 Мбайт (3%)
Заголовок : DVO Azazel & Noir
Язык : Russian
Default : Да
Forced : Нет
Аудио #2
Идентификатор : 3
Формат : AAC LC
Формат/Информация : Advanced Audio Codec Low Complexity
Идентификатор кодека : A_AAC-2
Продолжительность : 53 м. 42 с.
Битрейт : 132 Кбит/сек
Каналы : 2 канала
Channel layout : L R
Частота : 44,1 КГц
Частота кадров : 43,066 кадра/сек (1024 SPF)
Метод сжатия : С потерями
Размер потока : 50,3 Мбайт (2%)
Заголовок : AVO ДиоНиК
Язык : Russian
Default : Нет
Forced : Нет
Аудио #3
Идентификатор : 4
Формат : AAC LC
Формат/Информация : Advanced Audio Codec Low Complexity
Идентификатор кодека : A_AAC-2
Продолжительность : 53 м. 34 с.
Битрейт : 188 Кбит/сек
Каналы : 2 канала
Channel layout : L R
Частота : 44,1 КГц
Частота кадров : 43,066 кадра/сек (1024 SPF)
Метод сжатия : С потерями
Задержка видео : 22 мс.
Размер потока : 71,9 Мбайт (3%)
Заголовок : Japanese
Язык : Japanese
Default : Нет
Forced : Нет
Текст #1
Идентификатор : 5
Формат : ASS
Идентификатор кодека : S_TEXT/ASS
Идентификатор кодека/Информация : Advanced Sub Station Alpha
Продолжительность : 52 м. 54 с.
Битрейт : 117 бит/сек
Count of elements : 553
Метод сжатия : Без потерь
Размер потока : 45,6 Кбайт (0%)
Заголовок : перевод alexpro1234
Язык : Russian
Default : Да
Forced : Нет
Текст #2
Идентификатор : 6
Формат : ASS
Идентификатор кодека : S_TEXT/ASS
Идентификатор кодека/Информация : Advanced Sub Station Alpha
Продолжительность : 51 м. 11 с.
Битрейт : 97 бит/сек
Count of elements : 618
Метод сжатия : Без потерь
Размер потока : 36,7 Кбайт (0%)
Язык : English
Default : Нет
Forced : Нет
Меню
00:00:00.000 : :Chapitre 01
00:07:10.930 : :Chapitre 02
00:14:29.452 : :Chapitre 03
00:20:42.908 : :Chapitre 04
00:25:48.881 : :Chapitre 05
00:30:19.985 : :Chapitre 06
00:32:21.231 : :Chapitre 07
00:38:29.724 : :Chapitre 08
00:43:11.130 : :Chapitre 09
00:47:33.351 : :Chapitre 10
00:49:27.298 : :Chapitre 11
00:53:34.211 : :Chapitre 12
кстати есть у меня ещё второй фильм с двумя озвучками и сериал в переводе субтитрами.
[Profile] [PM]

Faer ®

Gender: Male

Longevity: 7 years 7 months

Posts: 1046

Post 26-Jun-2022 11:37 (after 7 minutes)

[Quote]

31842отрыл у себя в коллекции этот мульт. добавил Дионика, но у меня походу толи исходник другой, но есть английские сабы ещё и размер чуть больше) хотел поддержать раздачу, а не вышло)
У меня видео с рутрекера + Дионик. Скиньет пожалуйста англ. сабы, добавлю в раздачу.
31842кстати есть у меня ещё второй фильм с двумя озвучками и сериал в переводе субтитрами.
С двумя? Кто-то кроме персоны озвучил второй фильм? Поделитесь информацией пожалуйста)
Про сериал я думал, но решил пока отложить.
[Profile] [PM]

maks_lev

Gender: Male

Longevity: 8 months 13 days

Posts: 205

Location: Тверь

Post 26-Jun-2022 14:25 (after 2 hours 48 minutes)

[Quote]

31843Кто-то кроме персоны озвучил второй фильм?
Persona99 это Одноголосая женский голос
есть ещё Любительский (одноголосый закадровый) LuidgiVamp мужской голос
https://disk.yandex.ru/d/eOkQluYnlDO69Q - англ сабы на первый фильм
https://disk.yandex.ru/d/kNG-WeRLjT7LQA - англ сабы на второй фильм
[Profile] [PM]

Faer ®

Gender: Male

Longevity: 7 years 7 months

Posts: 1046

Post 26-Jun-2022 15:19 (after 54 minutes)

[Quote]

31844
31843Кто-то кроме персоны озвучил второй фильм?
Persona99 это Одноголосая женский голос
есть ещё Любительский (одноголосый закадровый) LuidgiVamp мужской голос
За субтитры спасибо.
Жаль что анимереактор умер, там бы из этих озвучек сделали одну двухголоску)
[Profile] [PM]

maks_lev

Gender: Male

Longevity: 8 months 13 days

Posts: 205

Location: Тверь

Post 26-Jun-2022 16:12 (after 52 minutes)

[Quote]

31845сделали одну двухголоску)
я тоже об этом подумал, но там оригинальная дорога на фоне по разному звучит, слишком бы резало слух
[Profile] [PM]
Display posts:    
Reply to topic

Current time is: 07-Aug 18:36

All times are UTC + 3



You cannot post new topics in this forum
You cannot reply to topics in this forum
You cannot edit your posts in this forum
You cannot delete your posts in this forum
You cannot vote in polls in this forum
You cannot attach files in this forum
You cannot download files in this forum