Deep Fear / Глубинный страх / Глубоководный ужас (без комментариев) (Hiroyuki Maruhama, Kunihiro Shirahata / Хироюки Марухама, Кунихиро Ширахата) [1998, Япония, survival horror, WEBRip 1080p] Sub (Rus) + Original Eng

Reply to topic
 
Author Message

Darth_47 ®

Gender: Male

Longevity: 3 years 6 months

Posts: 1401

Post 12-Jul-2022 11:47

[Quote]

Deep Fear / Глубинный страх / Глубоководный ужас- Страна: Япония
Жанр: survival horror
Год выпуска: 1998
Разработчики: Sega AM7, System Sacom, SIMS (some CG movie design), ISCO
Издатель: Sega
Платформа: Sega Saturn
Продолжительность: 5:24:31-Оригинальный язык: английский
Перевод: русские субтитры (karlivanovich)-Режиссеры: Hiroyuki Maruhama, Kunihiro Shirahata / Хироюки Марухама, Кунихиро Ширахата
Композитор: Kenji Kawai / Кенджи Каваи-Роли озвучивали: Сэмюэл Роуз, Карен Кеннеди, Том Уэст, Монти ДиПьетро, Уэйн Достер и др.-Описание: Deep Fear - игра в жанре survival horror, является последней игрой для Sega Saturn, выпущенной в Европе. Игра начинается с того, что небольшой НЛО терпит крушение рядом с научной базой, известной как Большой Стол. Через некоторое время внутри базы появляются враждебно настроенные мутанты, единственная цель которых - убивать.-Подробный текстовый обзор на сайте playground.ru: https://www.playground.ru/misc/opinion/obzor_unikal...deep_fear-708499
Отличный видеообзор на YouTube-канале BinKamin: https://www.youtube.com/watch?v=ZDlHmjUQDSw
Видеообзор от YouTube-канала Уютный подвальчик: https://www.youtube.com/watch?v=lH1Wa-m7MTM
Двухчасовая аналитика игры от YouTube-канала Unit2k: https://www.youtube.com/watch?v=5I3Vxrq2L0I-Доп. информация: Данная игра, как принято считать, являлась в свое время ответом компании SEGA на гремевшую в те годы серию Resident Evil от Capcom. Получилось очень достойно, ничуть не хуже так точно, но развития франшиза, к сожалению, так и не получила.
Данное прохождение записано YouTube-пользователем kimvonklvsgrd на живой приставке Sega Saturn с использованием OSSC и Hauppauge HD PVR 2 Gaming Edition. Все текстовые файлы в игре найдены и прочитаны. Прохождение без голосовых комментариев автора.
Перевод был заказан мной Карлу Ивановичу два года назад (причем, почти ровно, прислал готовый файл он мне 11 июля 2020 года) для личной коллекции. Спустя два года я всё же решил поделиться им, вдруг кому-то тоже будет интересно посмотреть. Лично я получил огромное удовольствие от просмотра. Единственное - советую смотреть это дело на телефоне. Игра старая, очень сильно пикселит (на скриншотах это отлично видно), но на небольшом экране этого практически незаметно, и смотрится прохождение на ура!
-
https://en.wikipedia.org/wiki/Deep_Fear-Релиз

Работа над релизом:
Запись прохождения - kimvonklvsgrd
Перевод на русский язык - karlivanovich
Спонсор перевода - Darth_47
-Качество видео: WEBRip 1080p
Формат видео: MP4
Видео: MPEG4 Video (H264) 1920x1080 50fps 1488kbps
Аудио: AAC 44100Hz stereo 128kbps [English]
Субтитры: русские (srt, UTF-8)-

MediaInfo

General
Complete name                  : Deep Fear Walkthrough Sega Saturn RUS.mp4
Format                         : MPEG-4
Format profile                 : Base Media
Codec ID                       : isom (isom/iso2/avc1/mp41)
File size                      : 3.68 GiB
Duration                       : 5 h 24 min
Overall bit rate               : 1 624 kb/s
Writing application            : Lavf58.20.100
Video
ID                             : 1
Format                         : AVC
Format/Info                    : Advanced Video Codec
Format profile                 : High@L4.2
Format settings                : CABAC / 3 Ref Frames
Format settings, CABAC         : Yes
Format settings, Reference fra : 3 frames
Codec ID                       : avc1
Codec ID/Info                  : Advanced Video Coding
Duration                       : 5 h 24 min
Duration_FirstFrame            : -20 ms
Bit rate                       : 1 488 kb/s
Width                          : 1 920 pixels
Height                         : 1 080 pixels
Display aspect ratio           : 16:9
Frame rate mode                : Variable
Frame rate                     : 50.000 FPS
Minimum frame rate             : 50.000 FPS
Maximum frame rate             : 50.056 FPS
Color space                    : YUV
Chroma subsampling             : 4:2:0
Bit depth                      : 8 bits
Scan type                      : Progressive
Bits/(Pixel*Frame)             : 0.014
Stream size                    : 3.37 GiB (92%)
Color range                    : Limited
Color primaries                : BT.709
Transfer characteristics       : BT.709
Matrix coefficients            : BT.709
Codec configuration box        : avcC
Audio
ID                             : 2
Format                         : AAC LC
Format/Info                    : Advanced Audio Codec Low Complexity
Codec ID                       : mp4a-40-2
Duration                       : 5 h 24 min
Bit rate mode                  : Constant
Bit rate                       : 128 kb/s
Channel(s)                     : 2 channels
Channel layout                 : L R
Sampling rate                  : 44.1 kHz
Frame rate                     : 43.066 FPS (1024 SPF)
Compression mode               : Lossy
Stream size                    : 297 MiB (8%)
Default                        : Yes
Alternate group                : 1

Скриншоты















[Profile] [PM]
Display posts:    
Reply to topic

Current time is: 28-Nov 15:34

All times are UTC + 3



You cannot post new topics in this forum
You cannot reply to topics in this forum
You cannot edit your posts in this forum
You cannot delete your posts in this forum
You cannot vote in polls in this forum
You cannot attach files in this forum
You cannot download files in this forum