Лунная Маска Навсегда / Gekko Kamen Forever [2008, Япония, документальный, DVDRemux] БП

Reply to topic
 
Author Message

Faer ®

Gender: Male

Longevity: 7 years 7 months

Posts: 1046

Post 19-Jul-2022 21:10

[Quote]

Лунная Маска Навсегда / Gekko Kamen Forever
Страна: Япония
Жанр: документальный
Год выпуска: 2008
Перевод 1: Отсутствует
Описание: Документальный DVD, выпущенный в честь пятидесятилетия сериала, в 2008 году.
Дополнительная информация: Приобрёл данный диск на том же cdjapan, так как я являюсь поклонником Лунной Маски. Причём диск пришел новый, в упаковке! При оцифровке столкнулся с проблемой: как назвать файлы. Пришлось скринить меню и распознавать в OCR-редакторе, а потом сравнивать по длине видеоряда. В остальном же, всё то же самое, что и с бонусным диском Парней 20 века. Эксклюзив, в интернете нет другой оцифровки. Если нужно, попозже могу сделать полный DVD9 образ оригинального диска.

Фото DVD и сканы обложки




Качество: DVDRemux
Формат: MKV
Видео: MPEG2, 720x480, 4:3, 29.97fps, 9000 Кбит/с
Аудио 1: AC3, 48КГц, 192 Кбит/с, стерео - Original

MediaInfo

Общее
Уникальный идентификатор : 195502459826185982359792050390031703646 (0x93146776E718348EC557D6A07E089E5E)
Полное имя : E:\Архив\Фильмы и сериалы\Gekko Kamen Forever\10. Moonlight Mask Forever.mkv
Формат : Matroska
Версия формата : Version 2
Размер файла : 3,71 Гбайт
Продолжительность : 57 м. 40 с.
Режим общего битрейта : Постоянный
Общий поток : 9 197 Кбит/сек
Дата кодирования : UTC 2022-07-19 16:13:07
Программа кодирования : MakeMKV v1.16.3 win(x64-release)
Библиотека кодирования : libmakemkv v1.16.3 (1.3.10/1.5.2) win(x64-release)
Видео
Идентификатор : 1
ID in the original source medium : 224 (0xE0)
Формат : MPEG Video
Версия формата : Version 2
Профиль формата : Main@Main
Настройки формата : CustomMatrix / BVOP
Параметр BVOP формата : Да
Параметр матрицы формата : Выборочная
Параметр GOP формата : M=3, N=15
Структура изображения : Frame
Идентификатор кодека : V_MPEG2
Идентификатор кодека/Информация : MPEG 1 or 2 Video
Продолжительность : 57 м. 40 с.
Вид битрейта : Постоянный
Битрейт : 9 000 Кбит/сек
Ширина : 720 пикселей
Высота : 480 пикселей
Соотношение сторон : 16:9
Режим частоты кадров : Постоянный
Частота кадров : 29,970 (30000/1001) кадров/сек
Стандарт вещания : NTSC
Цветовое пространство : YUV
Субдискретизация насыщенности : 4:2:0
Битовая глубина : 8 бит
Тип развёртки : Чересстрочная
Порядок развёртки : Верхнее поле первое
Метод сжатия : С потерями
Бит/(Пиксели*Кадры) : 0.869
Временной код первого кадра : 00:01:00:00
Оригинал временного кода : Group of pictures header
GOP, открыто/закрыто : Закрыто
Размер потока : 3,63 Гбайт (98%)
Язык : English
Default : Нет
Forced : Нет
Носитель оригинала : DVD-Video
Аудио
Идентификатор : 2
ID in the original source medium : 189 (0xBD)128 (0x80)
Формат : AC-3
Формат/Информация : Audio Coding 3
Коммерческое название : Dolby Digital
Идентификатор кодека : A_AC3
Продолжительность : 57 м. 40 с.
Вид битрейта : Постоянный
Битрейт : 192 Кбит/сек
Каналы : 2 канала
Channel layout : L R
Частота : 48,0 КГц
Частота кадров : 31,250 кадров/сек (1536 SPF)
Метод сжатия : С потерями
Размер потока : 79,2 Мбайт (2%)
Заголовок : Stereo
Язык : Japanese
Service kind : Complete Main
Default : Да
Forced : Нет
Носитель оригинала : DVD-Video
Меню
00:00:00.533 : en:Chapter 01
00:07:10.496 : en:Chapter 02
00:21:25.917 : en:Chapter 03
00:22:29.181 : en:Chapter 04
00:28:43.354 : en:Chapter 05
00:33:04.649 : en:Chapter 06
00:47:10.227 : en:Chapter 07
00:48:03.013 : en:Chapter 08
00:52:33.283 : en:Chapter 09
00:57:24.007 : en:Chapter 10

Скриншоты





[Profile] [PM]

maks_lev

Gender: Male

Longevity: 8 months 13 days

Posts: 205

Location: Тверь

Post 20-Jul-2022 00:13 (after 3 hours)

[Quote]

Сначала подумал, что это фильм Kekko Kamen Forever под столом Вроде все фильмы и аниме тоже есть) Ржака
Вопрос эта Лунная Маска имеет какую ни будь связь с марвеловким Лунным рыцарем?
[Profile] [PM]

Faer ®

Gender: Male

Longevity: 7 years 7 months

Posts: 1046

Post 20-Jul-2022 00:25 (after 12 minutes)

[Quote]

32140Сначала подумал, что это фильм Kekko Kamen Forever под столом Вроде все фильмы и аниме тоже есть) Ржака
У меня только аниме есть) А фильмы я так и не смог собрать. Так и не понял, их 9 или 12...
32140Вопрос эта Лунная Маска имеет какую ни будь связь с марвеловким Лунным рыцарем?
Нет.
[Profile] [PM]
Display posts:    
Reply to topic

Current time is: 07-Aug 18:43

All times are UTC + 3



You cannot post new topics in this forum
You cannot reply to topics in this forum
You cannot edit your posts in this forum
You cannot delete your posts in this forum
You cannot vote in polls in this forum
You cannot attach files in this forum
You cannot download files in this forum