[Color] Ультра Q / Ultra Q / Серии: 1-13 из 28 [1965, альманах, фантастика, кайдзю, BDRip 1080р] (СТ: Manol4), СТ (Eng), Original

Reply to topic
DL-List and Torrent activity
Size:  11.6 GB   |    Registered:  4 months 1 day   |    Completed:  3 times

Seeders:

Username ULR UL DL UL speed DL speed
Минотавр 0 0- 0- 0- 0-
shows data only for the current session
 
   
 
 
 
Author Message

ManoL4 ®

Gender: Unknown

Longevity: 5 months 11 days

Posts: 8

Post 26-Jul-2022 21:34

[Quote]

Ультра Q / Ultra Q [Серии: 1-13 из 28]
Год выпуска: 1965
Страна: Япония
Жанр: альманах, фантастика, кайдзю
Продолжительность: 13 серий по 25 мин.
Перевод: субтитры от Manol4 [HenToku M]
В ролях: Кендзи Сахара, Ясухико Сайджо, Хироко Сакурай
Описание: Сумеречная Зона на японский лад, то есть альманах из разных историй на тему паранормальщины, нападений ''кайдзинов'' (мутанты, сверхлюди), пришельцев и так далее, почти никак друг с другом не связанные.
Дополнительная информация: Цветная версия.

Постер в большом разрешении

Качество: BDRip 1080р
Формат: MKV
Видео: HEVC, 1432*1080, 4:3, 23,976fps, 5092 Кбит/с
Аудио: AAC, 48 КГц, 320 Кбит/с, стерео
Субтитры: русские, английские
Работа над релизом:
Перевод: Manol4 [HenToku M]
Редактирование: 1-3: Слава Черепянский, 4-13: Mr.Faer [Olskan]
Спонсоры перевода: Starlay, CROMAG, archestrategos, pompilius


MediaInfo

Общее
Уникальный идентификатор : 316560506635629834471947729079192064313 (0xEE2755FD261D118449589F4E4FC91139)
Полное имя : E:\Архив\Фильмы и сериалы\[Color] Ultra Q (1-13)\Ultra Q - 01.mkv
Формат : Matroska
Версия формата : Version 4
Размер файла : 934 Мбайт
Продолжительность : 25 м. 28 с.
Общий поток : 5 126 Кбит/сек
Дата кодирования : UTC 2022-07-26 18:00:07
Программа кодирования : mkvmerge v46.0.0 ('No Deeper Escape') 64-bit
Библиотека кодирования : libebml v1.3.10 + libmatroska v1.5.2
Видео
Идентификатор : 1
Формат : AVC
Формат/Информация : Advanced Video Codec
Профиль формата : High@L4
Настройки формата : CABAC / 4 Ref Frames
Параметр CABAC формата : Да
Параметр RefFrames формата : 4 кадра
Идентификатор кодека : V_MPEG4/ISO/AVC
Продолжительность : 25 м. 28 с.
Битрейт : 5 092 Кбит/сек
Ширина : 1 432 пикселя
Высота : 1 080 пикселей
Соотношение сторон : 4:3
Режим частоты кадров : Постоянный
Частота кадров : 23,976 (24000/1001) кадра/сек
Цветовое пространство : YUV
Субдискретизация насыщенности : 4:2:0
Битовая глубина : 8 бит
Тип развёртки : Прогрессивная
Бит/(Пиксели*Кадры) : 0.137
Размер потока : 928 Мбайт (99%)
Библиотека кодирования : x264 core 116 r2074 2641b9e
Настройки программы : cabac=1 / ref=3 / deblock=1:-1:-1 / analyse=0x3:0x133 / me=hex / subme=7 / psy=1 / psy_rd=1.00:0.15 / mixed_ref=1 / me_range=16 / chroma_me=1 / trellis=1 / 8x8dct=1 / cqm=0 / deadzone=21,11 / fast_pskip=1 / chroma_qp_offset=-3 / threads=6 / sliced_threads=0 / nr=0 / decimate=1 / interlaced=0 / bluray_compat=0 / constrained_intra=0 / bframes=3 / b_pyramid=2 / b_adapt=1 / b_bias=0 / direct=1 / weightb=1 / open_gop=0 / weightp=2 / keyint=250 / keyint_min=23 / scenecut=40 / intra_refresh=0 / rc_lookahead=40 / rc=crf / mbtree=1 / crf=25.0 / qcomp=0.60 / qpmin=0 / qpmax=69 / qpstep=4 / ip_ratio=1.40 / aq=1:1.00
Default : Да
Forced : Нет
Аудио
Идентификатор : 2
Формат : AAC LC SBR PS
Формат/Информация : Advanced Audio Codec Low Complexity with Spectral Band Replication and Parametric Stereo
Коммерческое название : HE-AACv2
Настройки формата : Explicit
Идентификатор кодека : A_AAC-2
Продолжительность : 25 м. 28 с.
Битрейт : 32,0 Кбит/сек
Каналы : 1 канал
Channel(s)_Original : 2 канала
ChannelLayout_Original : C
Частота : 48,0 КГц
Частота кадров : 23,438 кадра/сек (2048 SPF)
Метод сжатия : С потерями
Размер потока : 5,83 Мбайт (1%)
Язык : Japanese
Default : Да
Forced : Нет
Текст #1
Идентификатор : 3
Формат : ASS
Идентификатор кодека : S_TEXT/ASS
Идентификатор кодека/Информация : Advanced Sub Station Alpha
Продолжительность : 25 м. 12 с.
Битрейт : 68 бит/сек
Count of elements : 247
Метод сжатия : Без потерь
Размер потока : 12,6 Кбайт (0%)
Язык : English
Default : Нет
Forced : Нет
Текст #2
Идентификатор : 4
Формат : ASS
Идентификатор кодека : S_TEXT/ASS
Идентификатор кодека/Информация : Advanced Sub Station Alpha
Продолжительность : 25 м. 24 с.
Битрейт : 116 бит/сек
Count of elements : 229
Метод сжатия : Без потерь
Размер потока : 21,6 Кбайт (0%)
Заголовок : Manol4
Язык : Russian
Default : Да
Forced : Нет
Меню
00:00:00.000 : en:Chapter 01
00:00:16.016 : en:Chapter 02
00:00:48.715 : en:Chapter 03
00:02:12.632 : en:Chapter 04
00:12:53.773 : en:Chapter 05
00:13:17.213 : en:Chapter 06
00:14:19.859 : en:Chapter 07
00:15:04.737 : en:Chapter 08
00:16:21.105 : en:Chapter 09
00:17:58.911 : en:Chapter 10
00:18:45.624 : en:Chapter 11
00:19:59.740 : en:Chapter 12
00:20:26.976 : en:Chapter 13
00:21:01.010 : en:Chapter 14
00:22:27.263 : en:Chapter 15
00:23:51.972 : en:Chapter 16
00:24:57.955 : en:Chapter 17
00:25:26.650 : en:Chapter 18

Скриншоты




cd Рип дополнительно будет залит на облако cd2
[Color] Ultra Q (1-13).torrent
Torrent: Registered [ 2022-07-26 21:34 ]

Download .torrent

Download

30 KB

Status: checked
Completed: 3 times
Size: 11.6 GB
 
[Profile] [PM]

Минотавр

Gender: Unknown

Longevity: 1 month 9 days

Posts: 2

Post 18-Oct-2022 16:31 (after 2 months 22 days)

[Quote]

Спасибо за работу над сериалом!
Вернитесь пождалуйста на раздачу
[Profile] [PM]

Faer

Gender: Male

Longevity: 7 years 10 months

Posts: 1183

Post 18-Oct-2022 16:34 (after 3 minutes)

[Quote]

32792Спасибо за работу над сериалом!
Вернитесь пождалуйста на раздачу
Вернулся. И добавил ссылку на облако, на всякий случай. Файлы уже в процессе загрузки.
[Profile] [PM]
Display posts:    
Reply to topic

Current time is: 28-Nov 14:28

All times are UTC + 3



You cannot post new topics in this forum
You cannot reply to topics in this forum
You cannot edit your posts in this forum
You cannot delete your posts in this forum
You cannot vote in polls in this forum
You cannot attach files in this forum
You can download files in this forum