Кибер-Формула ГПИкс нового времени: Зеро / Future GPX Cyber Formula Zero / Серии: 1-8 из 8 (Мицуо Фукуда) [1994, драма, фантастика, спорт] (AVO: Дионик) (Original)

Reply to topic
 
Author Message

Faer ®

Gender: Male

Longevity: 7 years 10 months

Posts: 1183

Post 09-Aug-2022 20:52

[Quote]

Кибер-Формула ГПИкс нового времени: Зеро / Future GPX Cyber Formula Zero
Год выпуска: 1994
Страна: Япония
Жанр: драма, фантастика, спорт
Продолжительность: 00:28:30
Перевод: Авторский одноголосый закадровый Дионик
Русские субтитры: нет
Режиссёр: Мицуо Фукуда
Описание: После несчастного случая во время 12-ого Кибер Гран при Мира Формулы Казами Хаято смертельно ранен и пропускает остальную часть сезона. Давняя подруга Хаято, Аска Суго, помогает вылечить его, и взамен он предлагает ей руку и сердце и стать его невестой а так же обещает ей, что больше никогда не будет участвовать в гонках. Но время идёт, Хаято начинает сомневаться и решает вернуться в гонки от чего Аска бросает его. И с 13-ым Кибер Гран при Мира Формулы он должен изо всех сил пытаться возвратить свою лучшую форму; вернуть доверие Аски, из-за обещания которое он нарушил; помешать зловещным намерениям Анри Клейтона и взять контроль над "Нулевым Царством" (нулевая область, открывшаяся после аварии, войти в которую можно когда тело и разум испытывают пределы возможностей).
Дополнительная информация: За основу взял равки от QTC, которые нашел на nyaa. Скачал озвучку Дионика из ВК. Английские субтитры с официального BD нашел также на nyaa.


Видео: HEVC, 1508х1080, 1.396, 23.976fps, 6042 Кбит/с
Аудио: AAC, 44.1КГц, 132 Кбит/с, стерео - Дионик
Аудио 2: FLAC, 48КГц, 653 Кбит/с, стерео - Original
Субтитры: английские

MediaInfo

Общее
Уникальный идентификатор : 159917347403977171695317357195469330911 (0x784EF5F6F0352ABB7DB5E8A2A53919DF)
Полное имя : E:\Архив\Аниме архив\Future GPX Cyber Formula Zero\Future GPX Cyber Formula Zero - 01.mkv
Формат : Matroska
Версия формата : Version 4
Размер файла : 1,36 Гбайт
Продолжительность : 28 м. 30 с.
Режим общего битрейта : Переменный
Общий поток : 6 829 Кбит/сек
Дата кодирования : UTC 2022-08-07 13:47:55
Программа кодирования : mkvmerge v46.0.0 ('No Deeper Escape') 64-bit
Библиотека кодирования : libebml v1.3.10 + libmatroska v1.5.2
Обложка : Yes
Attachments : cover.jpg
Видео
Идентификатор : 1
Формат : HEVC
Формат/Информация : High Efficiency Video Coding
Профиль формата : Main 10@L4@High
Идентификатор кодека : V_MPEGH/ISO/HEVC
Продолжительность : 28 м. 30 с.
Битрейт : 6 042 Кбит/сек
Ширина : 1 508 пикселей
Высота : 1 080 пикселей
Соотношение сторон : 1,396
Режим частоты кадров : Постоянный
Частота кадров : 23,976 (24000/1001) кадра/сек
Цветовое пространство : YUV
Субдискретизация насыщенности : 4:2:0
Битовая глубина : 10 бит
Бит/(Пиксели*Кадры) : 0.155
Размер потока : 1,20 Гбайт (88%)
Библиотека кодирования : x265 3.4+7-g38774073d:[Windows][GCC 10.1.0][64 bit] 10bit
Настройки программы : cpuid=1111039 / frame-threads=5 / numa-pools=32,0 / wpp / no-pmode / no-pme / no-psnr / no-ssim / log-level=2 / input-csp=1 / input-res=1508x1080 / interlace=0 / level-idc=0 / high-tier=1 / uhd-bd=0 / ref=4 / no-allow-non-conformance / no-repeat-headers / annexb / no-aud / no-hrd / info / hash=0 / no-temporal-layers / no-open-gop / min-keyint=50 / keyint=360 / gop-lookahead=0 / bframes=8 / b-adapt=2 / b-pyramid / bframe-bias=0 / rc-lookahead=80 / lookahead-slices=4 / scenecut=40 / hist-scenecut=0 / radl=0 / no-splice / no-intra-refresh / ctu=32 / min-cu-size=8 / no-rect / no-amp / max-tu-size=32 / tu-inter-depth=2 / tu-intra-depth=2 / limit-tu=0 / rdoq-level=2 / dynamic-rd=0.00 / no-ssim-rd / signhide / no-tskip / nr-intra=0 / nr-inter=0 / no-constrained-intra / no-strong-intra-smoothing / max-merge=3 / limit-refs=2 / limit-modes / me=3 / subme=4 / merange=57 / temporal-mvp / no-frame-dup / no-hme / weightp / weightb / no-analyze-src-pics / deblock=0:0 / no-sao / no-sao-non-deblock / rd=5 / selective-sao=0 / no-early-skip / rskip / no-fast-intra / no-tskip-fast / no-cu-lossless / no-b-intra / no-splitrd-skip / rdpenalty=0 / psy-rd=1.50 / psy-rdoq=1.00 / no-rd-refine / no-lossless / cbqpoffs=-2 / crqpoffs=-2 / rc=crf / crf=15.0 / qcomp=0.72 / qpstep=4 / stats-write=0 / stats-read=0 / vbv-maxrate=28000 / vbv-bufsize=35000 / vbv-init=0.9 / crf-max=0.0 / crf-min=0.0 / ipratio=1.40 / pbratio=1.30 / aq-mode=3 / aq-strength=0.82 / cutree / zone-count=0 / no-strict-cbr / qg-size=32 / no-rc-grain / qpmax=69 / qpmin=0 / no-const-vbv / sar=0 / overscan=0 / videoformat=5 / range=0 / colorprim=1 / transfer=1 / colormatrix=1 / chromaloc=0 / display-window=0 / cll=0,0 / min-luma=0 / max-luma=1023 / log2-max-poc-lsb=8 / vui-timing-info / vui-hrd-info / slices=1 / no-opt-qp-pps / no-opt-ref-list-length-pps / no-multi-pass-opt-rps / scenecut-bias=0.05 / hist-threshold=0.01 / no-opt-cu-delta-qp / no-aq-motion / no-hdr10 / no-hdr10-opt / no-dhdr10-opt / no-idr-recovery-sei / analysis-reuse-level=0 / analysis-save-reuse-level=0 / analysis-load-reuse-level=0 / scale-factor=0 / refine-intra=0 / refine-inter=0 / refine-mv=1 / refine-ctu-distortion=0 / no-limit-sao / ctu-info=0 / no-lowpass-dct / refine-analysis-type=0 / copy-pic=1 / max-ausize-factor=1.0 / no-dynamic-refine / no-single-sei / no-hevc-aq / no-svt / no-field / qp-adaptation-range=1.00 / no-scenecut-aware-qpconformance-window-offsets / right=0 / bottom=0 / decoder-max-rate=0
Язык : Japanese
Default : Да
Forced : Нет
Цветовой диапазон : Limited
Основные цвета : BT.709
Характеристики трансфера : BT.709
Коэффициенты матрицы : BT.709
Аудио #1
Идентификатор : 2
Формат : FLAC
Формат/Информация : Free Lossless Audio Codec
Идентификатор кодека : A_FLAC
Продолжительность : 28 м. 30 с.
Вид битрейта : Переменный
Битрейт : 653 Кбит/сек
Каналы : 2 канала
Channel layout : L R
Частота : 48,0 КГц
Частота кадров : 11,719 кадров/сек (4096 SPF)
Битовая глубина : 16 бит
Метод сжатия : Без потерь
Размер потока : 133 Мбайт (10%)
Библиотека кодирования : libFLAC 1.3.2 (UTC 2017-01-01)
Язык : Japanese
Default : Нет
Forced : Нет
Аудио #2
Идентификатор : 3
Формат : AAC LC
Формат/Информация : Advanced Audio Codec Low Complexity
Идентификатор кодека : A_AAC-2
Продолжительность : 28 м. 29 с.
Битрейт : 132 Кбит/сек
Каналы : 2 канала
Channel layout : L R
Частота : 44,1 КГц
Частота кадров : 43,066 кадра/сек (1024 SPF)
Метод сжатия : С потерями
Размер потока : 26,7 Мбайт (2%)
Заголовок : Дионик
Язык : Russian
Default : Да
Forced : Нет
Текст
Идентификатор : 4
Формат : UTF-8
Идентификатор кодека : S_TEXT/UTF8
Идентификатор кодека/Информация : UTF-8 Plain Text
Продолжительность : 28 м. 23 с.
Битрейт : 72 бит/сек
Count of elements : 445
Размер потока : 15,1 Кбайт (0%)
Язык : English
Default : Да
Forced : Нет

Скриншоты




[Profile] [PM]
Display posts:    
Reply to topic

Current time is: 28-Nov 14:25

All times are UTC + 3



You cannot post new topics in this forum
You cannot reply to topics in this forum
You cannot edit your posts in this forum
You cannot delete your posts in this forum
You cannot vote in polls in this forum
You cannot attach files in this forum
You cannot download files in this forum