Рано или поздно / Elobb-utobb (Ишти Мадарас) [2006, Венгрия, научная фантастика, война, DVDRip] (СТ) (Sub Rus)

Reply to topic
 
Author Message

Faer ®

Gender: Male

Longevity: 7 years 10 months

Posts: 1183

Post 03-Nov-2022 22:40

[Quote]

Рано или поздно / Elobb-utobb
Страна: Венгрия
Жанр: научная фантастика, война
Год выпуска: 2006
Продолжительность: 00:11:11
Перевод 1: Субтитры
Cубтитры: русские
Режиссер: Ишти Мадарас
В ролях: Иллеш Нитраи, Петер Альберт
Описание: В конце второй мировой, нацисты начинают экспериментировать с машиной времени...
Доп. информация: Релиз почившего трекера синемаскоп. Фильм и перевод взяты из личной коллекции moNTer'а. Переводчик неизвестен.
Качество видео: DVDRip
Формат видео: MKV
Видео: AVC, 592х320, 1.85:1, 1024 Кбит/с
Аудио 1: AC3, 48КГц, 128 Кбит/с, стерео
Формат субтитров: softsub (SRT)

MediaInfo

Общее
Уникальный идентификатор : 19395602056579667781576986100592974720 (0xE977503216C553AED484CAC48229B80)
Полное имя : C:\Users\Ирис\Desktop\Elobb-utobb.mkv
Формат : Matroska
Версия формата : Version 4
Размер файла : 92,4 Мбайт
Продолжительность : 11 м. 11 с.
Общий поток : 1 154 Кбит/сек
Дата кодирования : UTC 2022-11-03 19:29:44
Программа кодирования : mkvmerge v52.0.0 ('Secret For The Mad') 64-bit
Библиотека кодирования : libebml v1.4.1 + libmatroska v1.6.2
Видео
Идентификатор : 1
Формат : AVC
Формат/Информация : Advanced Video Codec
Профиль формата : Main@L5.1
Настройки формата : CABAC / 2 Ref Frames
Параметр CABAC формата : Да
Параметр RefFrames формата : 2 кадра
Идентификатор кодека : V_MPEG4/ISO/AVC
Продолжительность : 11 м. 11 с.
Битрейт : 1 024 Кбит/сек
Ширина : 592 пикселя
Высота : 320 пикселей
Соотношение сторон : 1,85:1
Режим частоты кадров : Постоянный
Частота кадров : 25,000 кадров/сек
Цветовое пространство : YUV
Субдискретизация насыщенности : 4:2:0
Битовая глубина : 8 бит
Тип развёртки : Прогрессивная
Бит/(Пиксели*Кадры) : 0.216
Размер потока : 82,0 Мбайт (89%)
Библиотека кодирования : x264 core 49 svn-551
Настройки программы : cabac=1 / ref=1 / deblock=1:0:0 / analyse=0x1:0x131 / me=hex / subme=6 / brdo=0 / mixed_ref=0 / me_range=16 / chroma_me=1 / trellis=1 / 8x8dct=0 / cqm=0 / chroma_qp_offset=0 / slices=1 / nr=0 / decimate=1 / bframes=2 / b_pyramid=0 / b_adapt=1 / b_bias=0 / direct=2 / wpredb=1 / bime=0 / keyint=250 / keyint_min=25 / scenecut=40 / rc=2pass / bitrate=1024 / ratetol=1.0 / rceq='blurCplx^(1-qComp)' / qcomp=0.60 / qpmin=10 / qpmax=51 / qpstep=4 / cplxblur=20.0 / qblur=0.5 / ip_ratio=1.40 / pb_ratio=1.30
Default : Да
Forced : Нет
Аудио
Идентификатор : 2
Формат : AC-3
Формат/Информация : Audio Coding 3
Коммерческое название : Dolby Digital
Идентификатор кодека : A_AC3
Продолжительность : 11 м. 11 с.
Вид битрейта : Постоянный
Битрейт : 128 Кбит/сек
Каналы : 2 канала
Channel layout : L R
Частота : 48,0 КГц
Частота кадров : 31,250 кадров/сек (1536 SPF)
Метод сжатия : С потерями
Размер потока : 10,3 Мбайт (11%)
Язык : Hungarian
Service kind : Complete Main
Default : Да
Forced : Нет
Текст
Идентификатор : 3
Формат : UTF-8
Идентификатор кодека : S_TEXT/UTF8
Идентификатор кодека/Информация : UTF-8 Plain Text
Продолжительность : 9 м. 53 с.
Битрейт : 47 бит/сек
Count of elements : 41
Размер потока : 3,47 Кбайт (0%)
Язык : Russian
Default : Да
Forced : Нет

Скриншоты




[Profile] [PM]

B.Condor

Gender: Male

Longevity: 1 month 21 day

Posts: 27

Post 10-Nov-2022 03:44 (after 6 days)

[Quote]

Антуражем напомнило короткометражку "Камера № 8".
[Profile] [PM]

pompilius

Gender: Male

Longevity: 5 years

Posts: 615

Post 14-Nov-2022 22:29 (after 4 days)

[Quote]

Раздать никто не хочет?
[Profile] [PM]
Display posts:    
Reply to topic

Current time is: 28-Nov 14:02

All times are UTC + 3



You cannot post new topics in this forum
You cannot reply to topics in this forum
You cannot edit your posts in this forum
You cannot delete your posts in this forum
You cannot vote in polls in this forum
You cannot attach files in this forum
You cannot download files in this forum