Атомный город / The Atomic City (Джерри Хоппер) [1952, США, драма, детектив, WEBRip-720p] (АО : Трамвай-фильм)

Reply to topic
DL-List and Torrent activity
Size:  1.53 GB   |    Registered:  20 days   |    Completed:  6 times

Seeders:

Username ULR UL DL UL speed DL speed
pompilius 0 3158638830 MB 0- 0- 0-
Darth_47 0.4 727891968694 MB 0- 0- 0-
Darth_47 0 0- 0- 0- 0-
Anonymous 0 0- 16377147981.53 GB 0- 0-
pvd 0 0- 0- 0- 0-
pompilius 0 0- 0- 0- 0-
snorrinort 0 0- 0- 0- 0-
shows data only for the current session
 
   
 
 
 
Author Message

Трамвай-фильм ®

Gender: Male

Longevity: 8 years 3 months

Posts: 1868

Location: Россия

Post 07-Nov-2022 16:56

[Quote]

Атомный город / The Atomic City
Страна: США
Жанр: драма, детектив
Год выпуска: 1952
Продолжительность: 01:24:53
Перевод : Авторский (одноголосый) Трамвай-фильм
Режиссер: Джерри Хоппер
В ролях: Джин Бэрри, Лидия Кларк, Нэнси Гейтс, Ли Аакер
Описание: В пустынных районах штата Нью-Мексико, в городе Лос-Аламос, работает выдающийся физик-ядерщик Фрэнк Эддисон. Во время поездки с одноклассниками на местный фестиваль вражеские агенты похищают сына Фрэнка требуя взамен секрет водородной бомбы. Теперь перед отцом встает выбор между судьбой страны и судьбой своего ребенка.
Доп. информация: Драматический триллер, номинированный на «Оскар» за лучший сценарий. Идея перевода пришла из ранее переведенного документального фильма, где упоминался Атомный город.

Качество видео: WEBRip-720p
Видео: MPEG4 Video (H264), 1280x720, 24fps, 2 164 kb/s
Аудио 1: AAC, 44100Hz, stereo, 148 kb/s (русский)
Аудио 2: AAC, 44100Hz, stereo, 256 kb/s (английский)

MediaInfo

General
Format : Matroska
Format version : Version 4 / Version 2
File size : 1.53 GiB
Duration : 1 h 24 min
Overall bit rate : 2 571 kb/s
Encoded date : UTC 2022-11-07 13:32:59
Writing application : mkvmerge v10.0.0 ('To Drown In You') 32bit
Writing library : libebml v1.3.4 + libmatroska v1.4.5
Video
ID : 1
Format : AVC
Format/Info : Advanced Video Codec
Format profile : High@L3.1
Format settings : CABAC / 4 Ref Frames
Format settings, CABAC : Yes
Format settings, ReFrames : 4 frames
Format settings, GOP : M=1, N=72
Codec ID : V_MPEG4/ISO/AVC
Duration : 1 h 24 min
Bit rate : 2 164 kb/s
Width : 1 280 pixels
Height : 720 pixels
Display aspect ratio : 16:9
Frame rate mode : Constant
Frame rate : 24.000 FPS
Color space : YUV
Chroma subsampling : 4:2:0
Bit depth : 8 bits
Scan type : Progressive
Bits/(Pixel*Frame) : 0.098
Stream size : 1.28 GiB (84%)
Writing library : x264 core 157
Encoding settings : cabac=1 / ref=4 / deblock=1:2:2 / analyse=0x3:0x113 / me=hex / subme=2 / psy=1 / psy_rd=1.00:0.00 / mixed_ref=1 / me_range=16 / chroma_me=1 / trellis=0 / 8x8dct=1 / cqm=0 / deadzone=21,11 / fast_pskip=1 / chroma_qp_offset=0 / threads=22 / lookahead_threads=5 / sliced_threads=0 / nr=0 / decimate=1 / interlaced=0 / bluray_compat=0 / constrained_intra=0 / bframes=0 / weightp=2 / keyint=72 / keyint_min=7 / scenecut=0 / intra_refresh=0 / rc_lookahead=40 / rc=abr / mbtree=1 / bitrate=2164 / ratetol=1.0 / qcomp=0.60 / qpmin=10 / qpmax=51 / qpstep=4 / ip_ratio=0.91 / aq=1:1.00
Default : Yes
Forced : No
Audio #1
ID : 2
Format : AAC
Format/Info : Advanced Audio Codec
Format profile : LC
Codec ID : A_AAC-2
Duration : 1 h 24 min
Bit rate : 148 kb/s
Channel(s) : 2 channels
Channel positions : Front: L R
Sampling rate : 44.1 kHz
Frame rate : 43.066 FPS (1024 SPF)
Compression mode : Lossy
Stream size : 90.0 MiB (6%)
Title : Tramvai.film.2022
Language : Russian
Default : Yes
Forced : No
Audio #2
ID : 3
Format : AAC
Format/Info : Advanced Audio Codec
Format profile : LC
Codec ID : A_AAC-2
Duration : 1 h 24 min
Bit rate : 256 kb/s
Channel(s) : 2 channels
Channel positions : Front: L R
Sampling rate : 44.1 kHz
Frame rate : 43.066 FPS (1024 SPF)
Compression mode : Lossy
Stream size : 155 MiB (10%)
Title : Orginal.eng
Language : English
Default : No
Forced : No

Скриншоты

The Atomic City (1952).torrent
Torrent: Registered [ 2022-11-07 16:56 ]

Download .torrent

Download

15 KB

Status: checked
Completed: 6 times
Size: 1.53 GB
 
[Profile] [PM]
Display posts:    
Reply to topic

Current time is: 28-Nov 15:24

All times are UTC + 3



You cannot post new topics in this forum
You cannot reply to topics in this forum
You cannot edit your posts in this forum
You cannot delete your posts in this forum
You cannot vote in polls in this forum
You cannot attach files in this forum
You can download files in this forum