Пришествие великого Будды / The Great Buddha Arrival (Хирото Ёкокава) [2018, Япония, документальный, токусацу, фантастика, BDRip-1080p] (СТ: Mr.Faer) (Sub Rus)

Reply to topic
DL-List and Torrent activity
Size:  2.76 GB   |    Registered:  9 days   |    Completed:  2 times

Seeders:

Username ULR UL DL UL speed DL speed
Andrei1976 0 0- 0- 0- 0-
Andrei1976 0 0- 0- 0- 0-
Andrei1976 0 0- 0- 0- 0-
Andrei1976 0 0- 0- 0- 0-
Andrei1976 0 6358053561 MB 0- 0- 0-
Andrei1976 0 0- 0- 0- 0-
Andrei1976 0 0- 0- 0- 0-
Andrei1976 0 0- 0- 0- 0-
Andrei1976 0 0- 0- 0- 0-
Andrei1976 0 1672157716 MB 0- 0- 0-
shows data only for the current session
 
   
 
 
 
Author Message

Faer ®

Gender: Male

Longevity: 7 years 10 months

Posts: 1183

Post 18-Nov-2022 20:59

[Quote]

Пришествие великого Будды / The Great Buddha Arrival
Страна: Япония
Жанр: документальный, токусацу, фантастика
Год выпуска: 2018
Продолжительность: 01:00:09
Перевод 1: Субтитры _ Mr.Faer
Cубтитры: русские
Режиссер: Хирото Ёкокава
В ролях: Акира Такарада, Филип Грэйнджер, Тоси Тода, Акира Кубо, Юки Морита, Сиро Сано, Пегги Нил, Бин Фуруя, Юкидзиро Хотару, Юкико Кобаяси
Описание: Художественно/документальный фильм об утерянном фильме 1934 года "Прибытие великого Будды". Воспоминания, факты, мифы и легенды, связанные со статуей Будды.
Трейлер фильма в ВК


Качество видео: BDRip-1080p
Формат видео: MKV
Видео: AVC, 1920х1080, 16:9, 23.076fps, 6400 Кбит/с
Аудио 1: AAC, 48КГц, 186 Кбит/с, стерео
Формат субтитров: softsub (SSA/ASS)

MediaInfo

Общее
Уникальный идентификатор : 281413719083963243078863374812321560216 (0xD3B64F92D9DA5E9A00C312A031CA3698)
Полное имя : C:\Users\Ирис\Desktop\The Great Buddha Arrival (2018).mkv
Формат : Matroska
Версия формата : Version 4
Размер файла : 2,76 Гбайт
Продолжительность : 1 ч. 0 м.
Общий поток : 6 573 Кбит/сек
Дата кодирования : UTC 2022-11-18 17:38:45
Программа кодирования : mkvmerge v52.0.0 ('Secret For The Mad') 64-bit
Библиотека кодирования : libebml v1.4.1 + libmatroska v1.6.2
Видео
Идентификатор : 1
Формат : AVC
Формат/Информация : Advanced Video Codec
Профиль формата : Main@L4
Настройки формата : CABAC / 4 Ref Frames
Параметр CABAC формата : Да
Параметр RefFrames формата : 4 кадра
Идентификатор кодека : V_MPEG4/ISO/AVC
Продолжительность : 1 ч. 0 м.
Битрейт : 6 400 Кбит/сек
Ширина : 1 920 пикселей
Высота : 1 080 пикселей
Соотношение сторон : 16:9
Режим частоты кадров : Постоянный
Частота кадров : 23,976 (24000/1001) кадра/сек
Цветовое пространство : YUV
Субдискретизация насыщенности : 4:2:0
Битовая глубина : 8 бит
Тип развёртки : Прогрессивная
Бит/(Пиксели*Кадры) : 0.129
Размер потока : 2,68 Гбайт (97%)
Библиотека кодирования : x264 core 163 r3059 b684ebe0
Настройки программы : cabac=1 / ref=2 / deblock=1:0:0 / analyse=0x1:0x111 / me=hex / subme=6 / psy=1 / psy_rd=1.00:0.00 / mixed_ref=1 / me_range=16 / chroma_me=1 / trellis=1 / 8x8dct=0 / cqm=0 / deadzone=21,11 / fast_pskip=1 / chroma_qp_offset=-2 / threads=12 / lookahead_threads=2 / sliced_threads=0 / nr=0 / decimate=1 / interlaced=0 / bluray_compat=0 / constrained_intra=0 / bframes=3 / b_pyramid=2 / b_adapt=1 / b_bias=0 / direct=1 / weightb=1 / open_gop=0 / weightp=1 / keyint=240 / keyint_min=24 / scenecut=40 / intra_refresh=0 / rc_lookahead=30 / rc=2pass / mbtree=1 / bitrate=6400 / ratetol=1.0 / qcomp=0.60 / qpmin=0 / qpmax=69 / qpstep=4 / cplxblur=20.0 / qblur=0.5 / vbv_maxrate=20000 / vbv_bufsize=25000 / nal_hrd=none / filler=0 / ip_ratio=1.40 / aq=1:1.00
Default : Да
Forced : Нет
Цветовой диапазон : Limited
Основные цвета : BT.709
Характеристики трансфера : BT.709
Коэффициенты матрицы : BT.709
Аудио
Идентификатор : 2
Формат : AAC LC
Формат/Информация : Advanced Audio Codec Low Complexity
Идентификатор кодека : A_AAC-2
Продолжительность : 1 ч. 0 м.
Битрейт : 186 Кбит/сек
Каналы : 2 канала
Channel layout : L R
Частота : 48,0 КГц
Частота кадров : 46,875 кадров/сек (1024 SPF)
Метод сжатия : С потерями
Задержка видео : -21 мс.
Размер потока : 80,0 Мбайт (3%)
Язык : English
Default : Да
Forced : Нет
Текст
Идентификатор : 3
Формат : ASS
Идентификатор кодека : S_TEXT/ASS
Идентификатор кодека/Информация : Advanced Sub Station Alpha
Продолжительность : 52 м. 16 с.
Битрейт : 48 бит/сек
Count of elements : 215
Метод сжатия : Без потерь
Размер потока : 18,7 Кбайт (0%)
Заголовок : Olskan
Язык : Russian
Default : Да
Forced : Нет
Меню
00:00:00.000 : Chapitre 01
00:05:00.217 : Chapitre 02
00:10:00.850 : Chapitre 03
00:15:00.858 : Chapitre 04
00:20:01.200 : Chapitre 05
00:25:01.291 : Chapitre 06
00:30:01.800 : Chapitre 07
00:35:01.850 : Chapitre 08
00:40:02.609 : Chapitre 09
00:45:02.867 : Chapitre 10
00:50:02.791 : Chapitre 11
00:55:03.467 : Chapitre 12
00:58:33.677 : Chapitre 13

Скриншоты




The Great Buddha Arrival (2018).mkv.torrent
Torrent: Registered [ 2022-11-18 20:59 ]

Download .torrent

Download

55 KB

Status: checked
Completed: 2 times
Size: 2.76 GB
 


Last edited by Faer on 2022-11-22 23:30; edited 1 time in total
[Profile] [PM]

Faer ®

Gender: Male

Longevity: 7 years 10 months

Posts: 1183

Post 18-Nov-2022 21:07 (after 8 minutes)

[Quote]

Иногда я задумываюсь, зачем я это перевожу. А потом вспоминаю, что мне это нравится, и всё встаёт на свои места.
[Profile] [PM]

B.Condor

Gender: Male

Longevity: 1 month 21 day

Posts: 27

Post 20-Nov-2022 19:46 (after 1 day 22 hours)

[Quote]

По своей структуре, этот фильм напомнил мне аниме "Первый отряд", расширенную версию. Там тоже показывали попеременно то аниме, то воспоминания ветеранов. Правильно ты указал, что это художественно/документальный фильм.
[Profile] [PM]
Display posts:    
Reply to topic

Current time is: 28-Nov 14:23

All times are UTC + 3



You can post new topics in this forum
You cannot reply to topics in this forum
You cannot edit your posts in this forum
You cannot delete your posts in this forum
You cannot vote in polls in this forum
You cannot attach files in this forum
You can download files in this forum