Камен Райдер / Kamen Rider [1-5] (Минору Ямада, Итару Орита, Коити Такэмото) [1971, Япония, токусацу, приключения, BDRip 1080p] (Manol4) (Sub Rus)

Ответить на тему
Статистика раздачи
Размер:  15,4 GB   |    Зарегистрирован:  1 месяц 13 дней   |    Скачан:  2 раза

Полного источника не было: 3 часа

 
   
   
 
Автор Сообщение

ManoL4 ®

Пол: Не указан

Стаж: 7 месяцев 18 дней

Сообщений: 9

Создавать темы 23-Дек-2022 02:06 | #1

[Цитировать]

Камен Райдер / Kamen Rider
Страна: Япония
Жанр: токусацу, приключения
Год выпуска: 1971
Продолжительность: 00:24:00
Перевод: Субтитры от Manol4 [HenToku M]
Cубтитры: русские
Режиссер: Минору Ямада, Итару Орита, Коити Такэмото
В ролях: Хироси Фудзиока, Синдзи Накаэ, Дзиро Ябуки, Вакако Оки, Такэси Сасаки, Томонори Ядзаки, Акико Наката
Описание: Зловещая организация «Шокер», которая кроме Японии, расположила свои подразделения по всему миру, стремится завоевать мир, действуя террористическими методами. Для этого она создает ужасных монстров и киборгов. Однако один из киборгов - бывший студент Хонго Такеши, сбегает прежде чем ему промыли мозги, и приняв имя Камен Райдер (Наездник в маске), начинает сражаться с «Шокером».
Информация о релизе:
Видеоряд найден в сети
Перевод: Manol4 [HenToku M]
Редакция: Mr.Faer [Olskan]
Оформление субтитров: Азамат Гараев [HenToku M]
Особая благодарность Валерию Лисицыну


Качество видео: BDRip 1080p
Формат видео: MKV
Видео: AVC, 1920х1080, 16х9, 23.976fps, 13,7 Мбит/с
Аудио 1: AAC, 48КГц, 160 Кбит/с, стерео
Формат субтитров: softsub (SSA/ASS)

MediaInfo

Общее
Уникальный идентификатор : 120703696310629659497149502622550353416 (0x5ACEAFB2297944B3B76B5D6D6A1E6608)
Формат : Matroska
Версия формата : Version 4
Размер файла : 2,40 Гбайт
Продолжительность : 24 м. 49 с.
Общий поток : 13,9 Мбит/сек
Дата кодирования : UTC 2022-12-22 22:35:37
Программа кодирования : mkvmerge v52.0.0 ('Secret For The Mad') 64-bit
Библиотека кодирования : libebml v1.4.1 + libmatroska v1.6.2
Видео
Идентификатор : 1
Формат : AVC
Формат/Информация : Advanced Video Codec
Профиль формата : Main@L4
Настройки формата : CABAC / 4 Ref Frames
Параметр CABAC формата : Да
Параметр RefFrames формата : 4 кадра
Идентификатор кодека : V_MPEG4/ISO/AVC
Продолжительность : 24 м. 49 с.
Битрейт : 13,7 Мбит/сек
Ширина : 1 920 пикселей
Высота : 1 080 пикселей
Соотношение сторон : 16:9
Режим частоты кадров : Постоянный
Частота кадров : 23,976 (23976/1000) кадра/сек
Цветовое пространство : YUV
Субдискретизация насыщенности : 4:2:0
Битовая глубина : 8 бит
Тип развёртки : Прогрессивная
Бит/(Пиксели*Кадры) : 0.275
Размер потока : 2,37 Гбайт (99%)
Библиотека кодирования : x264 core 157 r2935 545de2f
Настройки программы : cabac=1 / ref=2 / deblock=1:0:0 / analyse=0x1:0x111 / me=hex / subme=6 / psy=1 / psy_rd=1.00:0.00 / mixed_ref=1 / me_range=16 / chroma_me=1 / trellis=1 / 8x8dct=0 / cqm=0 / deadzone=21,11 / fast_pskip=1 / chroma_qp_offset=-2 / threads=6 / lookahead_threads=1 / sliced_threads=0 / nr=0 / decimate=1 / interlaced=0 / bluray_compat=0 / constrained_intra=0 / bframes=3 / b_pyramid=2 / b_adapt=1 / b_bias=0 / direct=1 / weightb=1 / open_gop=0 / weightp=1 / keyint=240 / keyint_min=24 / scenecut=40 / intra_refresh=0 / rc_lookahead=30 / rc=crf / mbtree=1 / crf=14.0 / qcomp=0.60 / qpmin=0 / qpmax=69 / qpstep=4 / vbv_maxrate=20000 / vbv_bufsize=25000 / crf_max=0.0 / nal_hrd=none / filler=0 / ip_ratio=1.40 / aq=1:1.00
Default : Да
Forced : Нет
Цветовой диапазон : Limited
Основные цвета : BT.709
Характеристики трансфера : BT.709
Коэффициенты матрицы : BT.709
Аудио
Идентификатор : 2
Формат : AAC LC
Формат/Информация : Advanced Audio Codec Low Complexity
Идентификатор кодека : A_AAC-2
Продолжительность : 24 м. 49 с.
Битрейт : 160 Кбит/сек
Каналы : 2 канала
Channel layout : L R
Частота : 48,0 КГц
Частота кадров : 46,875 кадров/сек (1024 SPF)
Метод сжатия : С потерями
Задержка видео : -21 мс.
Размер потока : 28,4 Мбайт (1%)
Заголовок : Stereo
Язык : Japanese
Default : Да
Forced : Нет
Текст
Идентификатор : 3
Формат : ASS
Идентификатор кодека : S_TEXT/ASS
Идентификатор кодека/Информация : Advanced Sub Station Alpha
Продолжительность : 24 м. 40 с.
Битрейт : 105 бит/сек
Count of elements : 227
Метод сжатия : Без потерь
Размер потока : 19,1 Кбайт (0%)
Заголовок : Manol4 [HenToku M]
Язык : Russian
Default : Да
Forced : Нет

Скриншоты




[cinemaniacs.club].t3569.torrent
Торрент: Зарегистрирован [ 2022-12-23 02:06 ] · EA3FEA294DF5354592723A2E214FA582A922B0DA

Скачать .torrent

Скачать

154 KB

Статус: проверено · Faer · 1 месяц 13 дней назад
Скачан: 2 раза
Размер: 15,4 GB

Put here something :D (Edit: $bb_cfg['tor_help_block'] in config.php)

[Профиль] [ЛС]
Вернуться к началу
Показать сообщения:    
Ответить на тему

Текущее время: 05-Фев 04:31

Часовой пояс: UTC + 3



Вы не можете начинать темы
Вы не можете отвечать на сообщения
Вы не можете редактировать свои сообщения
Вы не можете удалять свои сообщения
Вы не можете голосовать в опросах
Вы не можете прикреплять файлы к сообщениям
Вы можете скачивать файлы