[Short] Сноу | Snow (Айзек Эргас | Isaac Ergas) [2013, США, драма, детектив, история, короткометражка, WEBRip 1080p] ЛД (PARUSSKI) + Sub (Rus, Eng) + Original Eng

Ответить на тему
 
Автор Сообщение

Darth_47 ®

Пол: Мужской

Стаж: 3 года 8 месяцев

Сообщений: 1454

Создавать темы 31-Дек-2022 17:42 | #1

[Цитировать]

Сноу | Snow- Страна: США
Жанр: драма, детектив, история, короткометражка
Год выпуска: 2013
Продолжительность: 00:22:32-Перевод: Любительский (двухголосый закадровый) (PARUSSKI)
Субтитры: русские, английские-Режиссер: Айзек Эргас | Isaac Ergas-В ролях: Чак МакКолам, Ребекка Спише, Дэрин Синглтон, Грегори Гиффорд Джилз, Моррисон Кедди, Энтони Марк Барроу, Террилл Хардвей, Уоррен Дэвис, Кит Даклин, Джейсон Уисман и др.-Описание: Когда великая вспышка холеры 1854 года косит жителей Лондона одного за другим, только доктор Джон Сноу понимает, в чем заключается истинная причина возникновения болезни. Ему остается только доказать это "верхушке" города, чтобы прервать череду смертей.- -Релиз

Работа над релизом:
Исходник скачан с cinemageddon.net
Перевод субтитров на русский язык - zadrot
Озвучка - PARUSSKI
Спонсор перевода и сборка релиза - Darth_47
-Качество видео: WEBRip 1080p
Формат видео: MKV
Видео: MPEG4 Video (H264) 1920x1080 23.976fps 11.6 Mb/s
Аудио 1: Dolby AC3 48000Hz stereo 256kbps [Русский ЛД (PARUSSKI)]
Аудио 2: DD+ 48000Hz stereo 224kbps [Eng]
Субтитры: русские, английские (srt, UTF-8)-

MediaInfo

General
Unique ID                      : 4688915918027622090167880894498532518 (0x3870D674A23BB04C095DB8F2610ECA6)
Complete name                  : Snow [short] 2013.x264.WEBRip.1080p.Rus-Eng.cinemaniacs.mkv
Format                         : Matroska
Format version                 : Version 4
File size                      : 1.90 GiB
Duration                       : 22 min 32 s
Overall bit rate mode          : Variable
Overall bit rate               : 12.1 Mb/s
Encoded date                   : UTC 2022-12-12 21:27:15
Writing application            : mkvmerge v35.0.0 ('All The Love In The World') 64-bit
Writing library                : libebml v1.3.9 + libmatroska v1.5.2
Video
ID                             : 1
Format                         : AVC
Format/Info                    : Advanced Video Codec
Format profile                 : High@L4
Format settings                : CABAC / 4 Ref Frames
Format settings, CABAC         : Yes
Format settings, Reference fra : 4 frames
Codec ID                       : V_MPEG4/ISO/AVC
Duration                       : 22 min 32 s
Bit rate mode                  : Variable
Bit rate                       : 11.6 Mb/s
Maximum bit rate               : 15.0 Mb/s
Width                          : 1 920 pixels
Height                         : 1 080 pixels
Display aspect ratio           : 16:9
Frame rate mode                : Constant
Frame rate                     : 23.976 (24000/1001) FPS
Color space                    : YUV
Chroma subsampling             : 4:2:0
Bit depth                      : 8 bits
Scan type                      : Progressive
Bits/(Pixel*Frame)             : 0.234
Stream size                    : 1.83 GiB (96%)
Title                          : cinemaniacs
Writing library                : x264 core 148 r2623 d5b2374
Encoding settings              : cabac=1 / ref=4 / deblock=1:-1:-1 / analyse=0x3:0x133 / me=umh / subme=9 / psy=1 / psy_rd=1.00:0.15 / mixed_ref=1 / me_range=24 / chroma_me=1 / trellis=2 / 8x8dct=1 / cqm=0 / deadzone=21,11 / fast_pskip=1 / chroma_qp_offset=-3 / threads=34 / lookahead_threads=5 / sliced_threads=0 / nr=150 / decimate=1 / interlaced=0 / bluray_compat=0 / constrained_intra=0 / bframes=8 / b_pyramid=2 / b_adapt=2 / b_bias=0 / direct=3 / weightb=1 / open_gop=0 / weightp=2 / keyint=120 / keyint_min=61 / scenecut=0 / intra_refresh=0 / rc_lookahead=120 / rc=crf / mbtree=1 / crf=18.0 / qcomp=0.60 / qpmin=0 / qpmax=69 / qpstep=4 / vbv_maxrate=15000 / vbv_bufsize=31250 / crf_max=0.0 / nal_hrd=vbr / filler=0 / ip_ratio=1.40 / aq=3:1.00
Language                       : English
Default                        : Yes
Forced                         : No
Color range                    : Limited
Color primaries                : BT.709
Transfer characteristics       : BT.709
Matrix coefficients            : BT.709
Audio #1
ID                             : 2
Format                         : AC-3
Format/Info                    : Audio Coding 3
Commercial name                : Dolby Digital
Codec ID                       : A_AC3
Duration                       : 22 min 32 s
Bit rate mode                  : Constant
Bit rate                       : 256 kb/s
Channel(s)                     : 2 channels
Channel layout                 : L R
Sampling rate                  : 48.0 kHz
Frame rate                     : 31.250 FPS (1536 SPF)
Compression mode               : Lossy
Stream size                    : 41.3 MiB (2%)
Title                          : Русский ЛД (PARUSSKI)
Language                       : Russian
Service kind                   : Complete Main
Default                        : Yes
Forced                         : No
Audio #2
ID                             : 3
Format                         : E-AC-3
Format/Info                    : Enhanced AC-3
Commercial name                : Dolby Digital Plus
Codec ID                       : A_EAC3
Duration                       : 22 min 32 s
Bit rate mode                  : Constant
Bit rate                       : 224 kb/s
Channel(s)                     : 2 channels
Channel layout                 : L R
Sampling rate                  : 48.0 kHz
Frame rate                     : 31.250 FPS (1536 SPF)
Compression mode               : Lossy
Stream size                    : 36.1 MiB (2%)
Language                       : English
Service kind                   : Complete Main
Default                        : No
Forced                         : No
Text #1
ID                             : 4
Format                         : UTF-8
Codec ID                       : S_TEXT/UTF8
Codec ID/Info                  : UTF-8 Plain Text
Duration                       : 20 min 23 s
Bit rate                       : 108 b/s
Frame rate                     : 0.176 FPS
Count of elements              : 215
Stream size                    : 16.1 KiB (0%)
Title                          : Русские (zadrot)
Language                       : Russian
Default                        : No
Forced                         : No
Text #2
ID                             : 5
Format                         : UTF-8
Codec ID                       : S_TEXT/UTF8
Codec ID/Info                  : UTF-8 Plain Text
Duration                       : 22 min 21 s
Bit rate                       : 57 b/s
Frame rate                     : 0.186 FPS
Count of elements              : 249
Stream size                    : 9.48 KiB (0%)
Language                       : English
Default                        : No
Forced                         : No
[Профиль] [ЛС]
Вернуться к началу

Darth_47 ®

Пол: Мужской

Стаж: 3 года 8 месяцев

Сообщений: 1454

Создавать темы 31-Дек-2022 17:57 | #2 (спустя 15 минут)

[Цитировать]

Пожалуй, один из лучших фильмов, если не самый лучший, что я видел в уходящем году. Мне всегда очень нравилась тематика страшных болезней в старые времена, и тут она показана как нельзя лучше. Коротко, конечно, очень хотелось бы полнометражный фильм по этому сюжету, но и то что есть, доставило большое удовольствие от просмотра.
[Профиль] [ЛС]
Вернуться к началу
Показать сообщения:    
Ответить на тему

Текущее время: 05-Фев 03:47

Часовой пояс: UTC + 3



Вы не можете начинать темы
Вы не можете отвечать на сообщения
Вы не можете редактировать свои сообщения
Вы не можете удалять свои сообщения
Вы не можете голосовать в опросах
Вы не можете прикреплять файлы к сообщениям
Вы не можете скачивать файлы