Пещера / The Cave (Алекс Маганья) [2023, США, ужасы, WEB-DLRip-2160p] (Olskan) (Sub Rus)

Ответить на тему
Статистика раздачи
Размер:  284 MB   |    Зарегистрирован:  13 дней   |    Скачан:  0 раз

Полного источника не было: 1 час 28 минут

 
   
   
 
Автор Сообщение

Faer ®

Пол: Мужской

Стаж: 8 лет

Сообщений: 1229

Создавать темы 23-Янв-2023 02:13 | #1

[Цитировать]

Пещера / The Cave
Страна: США
Жанр: ужасы
Год выпуска: 2023
Продолжительность: 00:03:34
Перевод 2: Субтитры __ Mr.Faer [Olskan]
Cубтитры: русские
Режиссер: Алекс Маганья
В ролях: Эшли Белот, Бекки Баш, Фито Гарсия
Описание: Две тревел-блогерши решили исследовать место, известное своей плохой репутацией...
Качество видео: WEB-DLRip-2160p
Формат видео: MKV
Видео: VP9, 3840х2160, 16:9, 23.976fps, 11 Мбит/с
Аудио 1: Opus, 48КГц, 122 Кбит/с, стерео
Формат субтитров: softsub (SRT)

MediaInfo

Общее
Уникальный идентификатор : 305033695873412541808721231812932144810 (0xE57B5A57319B562176C57A230A480EAA)
Полное имя : C:\Users\Ирис\Desktop\Road Trip.mkv
Формат : Matroska
Версия формата : Version 4
Размер файла : 284 Мбайт
Продолжительность : 3 м. 34 с.
Общий поток : 11,1 Мбит/сек
Дата кодирования : UTC 2023-01-20 16:03:04
Программа кодирования : mkvmerge v52.0.0 ('Secret For The Mad') 64-bit
Библиотека кодирования : libebml v1.4.1 + libmatroska v1.6.2
Видео
Идентификатор : 1
Формат : VP9
Идентификатор кодека : V_VP9
Продолжительность : 3 м. 34 с.
Битрейт : 11,0 Мбит/сек
Ширина : 3 840 пикселей
Высота : 2 160 пикселей
Соотношение сторон : 16:9
Режим частоты кадров : Постоянный
Частота кадров : 23,976 (24000/1001) кадра/сек
Цветовое пространство : YUV
Бит/(Пиксели*Кадры) : 0.055
Размер потока : 281 Мбайт (99%)
Язык : English
Default : Да
Forced : Нет
Цветовой диапазон : Limited
Основные цвета : BT.709
Характеристики трансфера : BT.709
Коэффициенты матрицы : BT.709
Аудио
Идентификатор : 2
Формат : Opus
Идентификатор кодека : A_OPUS
Продолжительность : 3 м. 34 с.
Битрейт : 122 Кбит/сек
Каналы : 2 канала
Channel layout : L R
Частота : 48,0 КГц
Частота кадров : 50,004 кадров/сек (960 SPF)
Метод сжатия : С потерями
Размер потока : 3,12 Мбайт (1%)
Язык : English
Default : Да
Forced : Нет
Текст
Идентификатор : 3
Формат : UTF-8
Идентификатор кодека : S_TEXT/UTF8
Идентификатор кодека/Информация : UTF-8 Plain Text
Продолжительность : 3 м. 20 с.
Битрейт : 49 бит/сек
Count of elements : 41
Размер потока : 1,20 Кбайт (0%)
Язык : Russian
Default : Да
Forced : Нет

Скриншоты




[cinemaniacs.club].t3593.torrent
Торрент: Зарегистрирован [ 2023-01-23 02:13 ] · 077F89E450F685E87988456E2D2F5AB7C2F9E849

Скачать .torrent

Скачать

22 KB

Статус: проверено · Faer · 13 дней назад
Скачан: 0 раз
Размер: 284 MB

Put here something :D (Edit: $bb_cfg['tor_help_block'] in config.php)

[Профиль] [ЛС]
Вернуться к началу
Показать сообщения:    
Ответить на тему

Текущее время: 05-Фев 03:43

Часовой пояс: UTC + 3



Вы можете начинать темы
Вы не можете отвечать на сообщения
Вы не можете редактировать свои сообщения
Вы не можете удалять свои сообщения
Вы не можете голосовать в опросах
Вы не можете прикреплять файлы к сообщениям
Вы можете скачивать файлы