Война колоссальной бестии / Война великана / War Of The Colossal Beast / Revenge of the Colossal Man (Берт А. Гордон / Bert I. Gordon) [1958 г., ужасы, фантастика, BDRip-1080p] АО (Трамвай-фильм)

Reply to topic
 
Author Message

admin ®

Gender: Male

Longevity: 9 years

Posts: 4692

Post 08-Apr-2014 16:28

[Quote]

Война колоссальной бестии / Война великана / War Of The Colossal Beast / Revenge of the Colossal Man
Год выпуска: 1958
Страна: США, Carmel Productions
Жанр: ужасы, фантастика
Продолжительность: 01:08:34
Перевод: Авторский одноголосый Трамвай-фильм
Режиссер: Берт А. Гордон / Bert I. Gordon
В ролях:
Sally Fraser ... Joyce Manning
Roger Pace ... Maj. Mark Baird
Duncan 'Dean' Parkin ... Col. Glenn Manning (as Dean Parkin)
Russ Bender ... Dr. Carmichael
Rico Alaniz ... Sgt. Luis Murillo
George Becwar ... John Swanson
Robert Hernandez ... Miguel
Charles Stewart ... Capt. Harris
June Jocelyn ... Mrs. Edwards
John McNamara ... Neurologist
Loretta Nicholson ... Joan
Raymond Winston ... Arthur Lang
Jack Kosslyn ... Newscaster
George Navarro ... Mexican Doctor
Bob Garnet ... Pentagon Correspondent
Описание: Фильм продолжение киноленты "Удивительно огромный человек".
В результате падения с Дамбы Гувера полковник-великан Глэнн Мэнениг не погиб, он получил страшные увечья и окончательно потерял рассудок. Течение вынесло его на границу Мексики и США, где он нападает на фургоны с продовольствием. Узнав про это, его сестра Джойс, заручившись поддержкой американский военных и ученых отправляется в Мексику, что бы отыскать его.
cd Начало: The Amazing Colossal Man 1957 cd2 Качество: BDRip-1080p
Формат: MKV
Видео: x264, 2500 кбит/с, 1920x1036, 23,976 к/с
Аудио 1: Русский АО (Трамвай) (AC3, 2 ch, 224 Кбит/с)
Аудио 2: Английский (AC3, 2 ch, 224 Кбит/с)
Субтитры : Английские
Работа над релизом:
Рип найден на rarbg2018.org
Синхрон. русской дорожки - kosmoaelita



Пример русской озвучки

Дополнительно

слоган «The towering terror from hell!»
Also Known As (AKA)
(original title) War of the Colossal Beast
Revenge of the Colossal Man
The Terror Strikes
Spain La guerra de la bestia gigante
Spain (reissue title) La guerra del monstruo colosal
France Le retour de l'homme colosse
West Germany Gigant des Grauens
================================================
Для Украины: рип и оригинальный ДВД дополнительно залиты в файлохранилище
Рип дополнительно залит на mail.ru
Сравнение: kosmoaelita.com vs. Tramvaj
Для удаления,добавления и извлечения дорожек в mkv используйте бесплатную портативную mkvmerge GUI 6.6.0
Для присоединения потом дорожек к avi воспользуйтесь VirtualDubMod

Знаете ли вы, что...

В течение фильма полковник Мэннинг говорит всего одно слово — имя своей сестры Джойс.

Отзывы

Лог кодирования

MediaInfo

Общее
Уникальный идентификатор : 184827197700535910164966589439535319657 (0x8B0C6C67CCD4D7A0AE8A31A50AF58A69)
Полное имя : N:\BD-DISC\War.of.the.Colossal.Beast.1958.1080p.BluRay.H264.AAC-RARBG\War of the Colossal Beast 1958.x264.BDRip.1080p.Rus.kosmoaelita.mkv
Формат : Matroska
Версия формата : Version 4
Размер файла : 1,41 Гбайт
Продолжительность : 1 ч. 8 м.
Общий поток : 2950 Кбит/сек
Название фильма : Война колоссальной бестии / War of the colossal beast / 1958 / kosmoaelita
Дата кодирования : UTC 2021-07-05 05:49:21
Программа кодирования : mkvmerge v6.6.0 ('The Edge Of The In Between') built on Dec 1 2013 17:55:00
Библиотека кодирования : libebml v1.3.0 + libmatroska v1.4.1
Attachments : Poster.jpg
Видео
Идентификатор : 1
Формат : AVC
Формат/Информация : Advanced Video Codec
Профиль формата : High@L4.1
Настройки формата : CABAC / 4 Ref Frames
Параметр CABAC формата : Да
Параметр RefFrames формата : 4 кадра
Идентификатор кодека : V_MPEG4/ISO/AVC
Продолжительность : 1 ч. 8 м.
Битрейт : 2500 Кбит/сек
Ширина : 1920 пикселей
Высота : 1036 пикселей
Соотношение сторон : 1,85:1
Режим частоты кадров : Постоянный
Частота кадров : 23,976 (23976/1000) кадра/сек
Цветовое пространство : YUV
Субдискретизация насыщенности : 4:2:0
Битовая глубина : 8 бит
Тип развёртки : Прогрессивная
Бит/(Пиксели*Кадры) : 0.052
Размер потока : 1,17 Гбайт (83%)
Заголовок : http://kosmoaelita.com/viewtopic.php?t=1163
Библиотека кодирования : x264 core 152 r2851M ba24899
Настройки программы : cabac=1 / ref=4 / deblock=1:-1:-1 / analyse=0x3:0x113 / me=umh / subme=9 / psy=1 / psy_rd=1.00:0.15 / mixed_ref=1 / me_range=24 / chroma_me=1 / trellis=2 / 8x8dct=1 / cqm=0 / deadzone=21,11 / fast_pskip=1 / chroma_qp_offset=-3 / threads=16 / lookahead_threads=4 / sliced_threads=0 / nr=0 / decimate=1 / interlaced=0 / bluray_compat=0 / constrained_intra=0 / bframes=3 / b_pyramid=2 / b_adapt=2 / b_bias=0 / direct=3 / weightb=1 / open_gop=0 / weightp=2 / keyint=250 / keyint_min=25 / scenecut=40 / intra_refresh=0 / rc_lookahead=50 / rc=2pass / mbtree=1 / bitrate=2500 / ratetol=1.0 / qcomp=0.60 / qpmin=0 / qpmax=69 / qpstep=4 / cplxblur=20.0 / qblur=0.5 / vbv_maxrate=31250 / vbv_bufsize=31250 / nal_hrd=none / filler=0 / ip_ratio=1.40 / aq=3:1.00
Default : Да
Forced : Нет
Аудио #1
Идентификатор : 2
Формат : AC-3
Формат/Информация : Audio Coding 3
Коммерческое название : Dolby Digital
Идентификатор кодека : A_AC3
Продолжительность : 1 ч. 8 м.
Вид битрейта : Постоянный
Битрейт : 224 Кбит/сек
Каналы : 2 канала
ChannelLayout : L R
Частота : 48,0 КГц
Частота кадров : 31,250 кадров/сек (1536 SPF)
Метод сжатия : С потерями
Задержка видео : -43 мс.
Размер потока : 110 Мбайт (8%)
Заголовок : Русский АО (Трамвай-фильм)
Язык : Russian
ServiceKind/String : Complete Main
Default : Да
Forced : Нет
Аудио #2
Идентификатор : 3
Формат : AC-3
Формат/Информация : Audio Coding 3
Коммерческое название : Dolby Digital
Идентификатор кодека : A_AC3
Продолжительность : 1 ч. 8 м.
Вид битрейта : Постоянный
Битрейт : 224 Кбит/сек
Каналы : 2 канала
ChannelLayout : L R
Частота : 48,0 КГц
Частота кадров : 31,250 кадров/сек (1536 SPF)
Метод сжатия : С потерями
Задержка видео : -43 мс.
Размер потока : 110 Мбайт (8%)
Язык : English
ServiceKind/String : Complete Main
Default : Нет
Forced : Нет
Текст #1
Идентификатор : 4
Формат : UTF-8
Идентификатор кодека : S_TEXT/UTF8
Идентификатор кодека/Информация : UTF-8 Plain Text
Заголовок : kosmoaelita
Default : Да
Forced : Да
Текст #2
Идентификатор : 5
Формат : UTF-8
Идентификатор кодека : S_TEXT/UTF8
Идентификатор кодека/Информация : UTF-8 Plain Text
Язык : English
Default : Нет
Forced : Нет

Скриншоты
















Скринлист

cd Рип дополнительно залит на mail.ru cd2


Last edited by admin on 2014-04-08 16:37; edited 1 time in total
[Profile] [PM]

admin ®

Gender: Male

Longevity: 9 years

Posts: 4692

Post 08-Apr-2014 16:37 (after 8 minutes)

[Quote]

Сравнение: kosmoaelita.com vs. Tramvaj
[Profile] [PM]

Трамвай-фильм

Gender: Male

Longevity: 8 years

Posts: 1840

Location: Россия

Post 19-Nov-2017 16:39 (after 3 years 7 months)

[Quote]

Я обновил перевод: https://nnm-club.name/forum/viewtopic.php?t=1185026
Собственно этот фильм оставался последним, которым я был не очень доволен из старых работ. Так что переделал, если будет желание, то надо бы сюда новую дорожку приклеить, разница в 1 секунде, так что все должно быть подогнано, если надо дам чистый голос
[Profile] [PM]

Guest

Gender: Unknown

Longevity: 52 years

Post 20-Nov-2017 00:41 (after 8 hours)

[Quote]

Я заменил торрент и файл на облаке.
Качество перевода может и улучшилось...
Но вот разборчивость речи сильно упала. Некоторые фразы просто не разобрать.
Вы используете какой-то дичайший шумодав. Зачем только непонятно? В результате некоторые слова искажаются непонятным "бульканьем"
[Profile] [PM]

Трамвай-фильм

Gender: Male

Longevity: 8 years

Posts: 1840

Location: Россия

Post 20-Nov-2017 19:50 (after 19 hours)

[Quote]

20022Я заменил торрент и файл на облаке.
Качество перевода может и улучшилось...
Но вот разборчивость речи сильно упала. Некоторые фразы просто не разобрать.
Вы используете какой-то дичайший шумодав. Зачем только непонятно? В результате некоторые слова искажаются непонятным "бульканьем"
Если его не использовать - то слышен куллер (вентилятор моего компа). Кроме того перевод стал подробнее, приходится чаще говорить. в ранней версии, давалось общее понятие в длинных и быстрых фразах (собственно суть то передана верно, но детали раскрыты тут)
За обновление спасибо
[Profile] [PM]

Susanin

Gender: Male

Longevity: 8 years 3 months

Posts: 865

Post 02-Dec-2020 20:35 (after 3 years)

[Quote]

War.of.the.Colossal.Beast.1958.1080p.BluRay.x264-EDPH
https://rarbgmirror.org/torrent/7jqxn5c
[Profile] [PM]

kosmoaelita

Gender: Male

Longevity: 9 years

Posts: 1929

Post 25-Aug-2021 08:32 (after 8 months 22 days)

[Quote]

Замена на BDRip
[Profile] [PM]
Display posts:    
Reply to topic

Current time is: 12-Aug 08:37

All times are UTC + 3



You cannot post new topics in this forum
You cannot reply to topics in this forum
You cannot edit your posts in this forum
You cannot delete your posts in this forum
You cannot vote in polls in this forum
You cannot attach files in this forum
You cannot download files in this forum