Опытный образец / Прототип / Prototype (Джек Питер Манди) [2022, Великобритания, Фантастика, WEBRip-1080p] (ЛМ : AlphaProject) (Sub Eng)

Reply to topic
 
Author Message

maks_lev ®

Gender: Male

Longevity: 8 months 13 days

Posts: 205

Location: Тверь

Post 25-Jul-2022 11:34

[Quote]

Опытный образец / Прототип / Prototype
Страна: Великобритания
Жанр: Фантастика
Год выпуска: 2022
Продолжительность: 01:27:47
Перевод: Любительский (многоголосый) AlphaProject
Cубтитры: английские
Режиссер: Джек Питер Манди
В ролях: Даниэль Скотт, Эндрю Рольфе, Стефани Лодж, Том Таплин, Джэми Робертсон, Зои Перди, Бен Рид, Люк Робинсон
Описание: В ближайшем будущем в мире ведется работа по созданию андроидов, обладающих с искусственным интеллектом и способных помогать людям по дому. Первый опытный образец, созданный Роджером Маршаллом, оказывается популярным, но несовершенным. Роджер берется за создание новой модели с улучшенными характеристиками. Однако, случается непредвиденное, и андроиды выходят из строя, подвергая семью Роджера опасности.
Доп. информация: Один из двух одноимённых фильмов вышедших в 2022 году. (Второй "The Prototype" тоже в работе и если наш гуру справится то будет и релиз.) смайлик+
WEBRip 1080p слил с рарбг. А вот многоголоска была с рекламой и за её обработку и подгон к видеоряду как всегда благодарность нашему moNTer-u!!! Больше на рурегионе этот фильм не представлен в таком качестве, да и вообще без рекламы. Конечно фильм "не высшей лиги", но чем то мне напомнил всю туже философскую идею, что и в "Бабушки, заряжайтесь побыстрее!" по рассказу Рэя Брэдбери. Хотя сам андроид не просто похож - а точь в точь как в фильме "Альфа-тест" 2020 года (у меня он тоже есть). Видимо маску "дали поносить"! под столом
Физически не могу долго сидировать - если нет сидов пишите в личку вернусь на раздачу)
Сэмпл: https://www.youtube.com/watch?v=u3WOTV66Lo4
Качество видео: WEBRip-1080p
Формат видео: MKV
Видео: 6 698 Кбит/сек, 1912*1032 (1,85:1), 25,000 кадров/сек, AVC
Аудио 1: Russian, 192 Кбит/сек, 48,0 КГц, 2 канала, AC-3
Аудио 2: English, 384 Кбит/сек, 48,0 КГц, 6 каналов, AC-3
Формат субтитров: softsub (SRT и SDH)
Доп. информация о субтитрах: English

MediaInfo

Формат : Matroska
Версия формата : Version 4
Размер файла : 4,46 Гбайт
Продолжительность : 1 ч. 27 м.
Общий поток : 7 276 Кбит/сек
Название фильма : Prototype.2022.CMRG
Дата кодирования : UTC 2022-07-25 07:31:09
Программа кодирования : mkvmerge v67.0.0 ('Under Stars') 64-bit
Библиотека кодирования : libebml v1.4.2 + libmatroska v1.6.4
Видео
Идентификатор : 1
Формат : AVC
Формат/Информация : Advanced Video Codec
Профиль формата : High@L4
Настройки формата : CABAC / 4 Ref Frames
Параметр CABAC формата : Да
Параметр RefFrames формата : 4 кадра
Идентификатор кодека : V_MPEG4/ISO/AVC
Продолжительность : 1 ч. 27 м.
Битрейт : 6 698 Кбит/сек
Ширина : 1 912 пикселей
Высота : 1 032 пикселя
Соотношение сторон : 1,85:1
Режим частоты кадров : Постоянный
Частота кадров : 25,000 кадров/сек
Цветовое пространство : YUV
Субдискретизация насыщенности : 4:2:0
Битовая глубина : 8 бит
Тип развёртки : Прогрессивная
Бит/(Пиксели*Кадры) : 0.136
Размер потока : 4,11 Гбайт (92%)
Default : Да
Forced : Нет
Цветовой диапазон : Limited
Основные цвета : BT.709
Характеристики трансфера : BT.709
Коэффициенты матрицы : BT.709
Аудио #1
Идентификатор : 2
Формат : AC-3
Формат/Информация : Audio Coding 3
Коммерческое название : Dolby Digital
Идентификатор кодека : A_AC3
Продолжительность : 1 ч. 27 м.
Вид битрейта : Постоянный
Битрейт : 192 Кбит/сек
Каналы : 2 канала
Channel layout : L R
Частота : 48,0 КГц
Частота кадров : 31,250 кадров/сек (1536 SPF)
Метод сжатия : С потерями
Размер потока : 121 Мбайт (3%)
Заголовок : Любительский (многоголосый) [AlphaProject]
Язык : Russian
Service kind : Complete Main
Default : Да
Forced : Нет
Аудио #2
Идентификатор : 3
Формат : AC-3
Формат/Информация : Audio Coding 3
Коммерческое название : Dolby Digital
Идентификатор кодека : A_AC3
Продолжительность : 1 ч. 27 м.
Вид битрейта : Постоянный
Битрейт : 384 Кбит/сек
Каналы : 6 каналов
Channel layout : L R C LFE Ls Rs
Частота : 48,0 КГц
Частота кадров : 31,250 кадров/сек (1536 SPF)
Метод сжатия : С потерями
Размер потока : 241 Мбайт (5%)
Заголовок : English
Язык : English
Service kind : Complete Main
Default : Нет
Forced : Нет
Текст #1
Идентификатор : 4
Формат : UTF-8
Идентификатор кодека : S_TEXT/UTF8
Идентификатор кодека/Информация : UTF-8 Plain Text
Продолжительность : 1 ч. 27 м.
Битрейт : 59 бит/сек
Count of elements : 1508
Размер потока : 38,0 Кбайт (0%)
Заголовок : English [SDH]
Язык : English
Default : Нет
Forced : Нет
Текст #2
Идентификатор : 5
Формат : UTF-8
Идентификатор кодека : S_TEXT/UTF8
Идентификатор кодека/Информация : UTF-8 Plain Text
Продолжительность : 1 ч. 25 м.
Битрейт : 48 бит/сек
Count of elements : 1116
Размер потока : 30,4 Кбайт (0%)
Заголовок : English
Язык : English
Default : Нет
Forced : Нет
[Profile] [PM]
Display posts:    
Reply to topic

Current time is: 07-Aug 18:48

All times are UTC + 3



You cannot post new topics in this forum
You cannot reply to topics in this forum
You cannot edit your posts in this forum
You cannot delete your posts in this forum
You cannot vote in polls in this forum
You cannot attach files in this forum
You cannot download files in this forum