Глаза призрака / Ghost Eyes / Gui yan (Чин-Хунг Куэй) [1974, Гонконг, ужасы, DVDRip] (АО: Виктор Береговых) (Sub Eng)

Reply to topic
 
Author Message

Faer ®

Gender: Male

Longevity: 7 years 7 months

Posts: 1046

Post 01-Aug-2022 06:03

[Quote]

Глаза призрака / Ghost Eyes / Gui yan
Страна: Гонконг
Жанр: ужасы
Год выпуска: 1974
Продолжительность: 01:38:49
Перевод 1: Авторский (одноголосый) Виктор Береговых
Cубтитры: английские
Режиссер: Чин-Хунг Куэй
В ролях: Сзу-Чиа Чен, Вэй Си, Вэй Ту Лин, Пинг Ха, Чинг Хо Вонг, Мей Хуа Чен, Хо Аи Чианг, Ли-Ю Чанг, Лап Бан Чан, Шан Юн Лианг
Описание: Баолин (Чан Си-Кай) работает в салоне красоты, где однажды встречает импозантного мужчину по имени Чонцзи (Си Вэй). Тот сообщил новой знакомой, что владеет магазином оптики и предложил Баолин сделать ей контактные линзы с хорошей скидкой. Девушка согласилась, а вскоре поняла, что не может снять новоприобретенные линзы – и более того, они дают Цонцзи, оказавшемуся кровожадным призраком, полную власть над ней.


Качество видео: DVDRip
Формат видео: MKV
Видео: AVC, 716x358, 2.35:1, 29.970fps, 1145 Кбит/с
Аудио 1: AC3, 48КГц, 192 Кбит/с, стерео - В. Береговых
Аудио 2: AC3, 48КГц, 192 Кбит/с, стерео - Original
Формат субтитров: prerendered (IDX+SUB)

MediaInfo

Общее
Уникальный идентификатор : 42841603469341328451410852743292148989 (0x203AFE2180CBACF80976A3C50A185CFD)
Полное имя : E:\Архив\Фильмы и сериалы\Ghost Eyes (1974).mkv
Формат : Matroska
Версия формата : Version 4
Размер файла : 1,06 Гбайт
Продолжительность : 1 ч. 38 м.
Общий поток : 1 532 Кбит/сек
Дата кодирования : UTC 2022-07-31 09:55:46
Программа кодирования : mkvmerge v46.0.0 ('No Deeper Escape') 64-bit
Библиотека кодирования : libebml v1.3.10 + libmatroska v1.5.2 / Lavf55.12.0
Видео
Идентификатор : 1
Формат : AVC
Формат/Информация : Advanced Video Codec
Профиль формата : High@L3.1
Настройки формата : CABAC / 16 Ref Frames
Параметр CABAC формата : Да
Параметр RefFrames формата : 16 кадров
Идентификатор кодека : V_MPEG4/ISO/AVC
Продолжительность : 1 ч. 38 м.
Битрейт : 1 145 Кбит/сек
Ширина : 716 пикселей
Высота : 358 пикселей
Соотношение сторон : 2,35:1
Соотношение сторон в оригинале : 2,40:1
Режим частоты кадров : Постоянный
Частота кадров : 29,970 (30000/1001) кадров/сек
Цветовое пространство : YUV
Субдискретизация насыщенности : 4:2:0
Битовая глубина : 8 бит
Тип развёртки : Прогрессивная
Бит/(Пиксели*Кадры) : 0.149
Размер потока : 809 Мбайт (75%)
Библиотека кодирования : x264 core 142 r2479 dd79a61
Настройки программы : cabac=1 / ref=16 / deblock=1:-3:-3 / analyse=0x3:0x133 / me=umh / subme=9 / psy=1 / psy_rd=1.00:0.15 / mixed_ref=1 / me_range=24 / chroma_me=1 / trellis=2 / 8x8dct=1 / cqm=0 / deadzone=21,11 / fast_pskip=0 / chroma_qp_offset=-3 / threads=18 / lookahead_threads=2 / sliced_threads=0 / nr=0 / decimate=1 / interlaced=0 / bluray_compat=0 / constrained_intra=0 / bframes=6 / b_pyramid=2 / b_adapt=2 / b_bias=0 / direct=3 / weightb=1 / open_gop=0 / weightp=2 / keyint=300 / keyint_min=30 / scenecut=40 / intra_refresh=0 / rc_lookahead=60 / rc=crf / mbtree=1 / crf=18.0 / qcomp=0.60 / qpmin=0 / qpmax=69 / qpstep=4 / ip_ratio=1.40 / aq=1:1.00
Default : Да
Forced : Нет
Цветовой диапазон : Limited
Основные цвета : BT.601 NTSC
Характеристики трансфера : BT.709
Коэффициенты матрицы : BT.601
Аудио #1
Идентификатор : 2
Формат : AC-3
Формат/Информация : Audio Coding 3
Коммерческое название : Dolby Digital
Идентификатор кодека : A_AC3
Продолжительность : 1 ч. 38 м.
Вид битрейта : Постоянный
Битрейт : 192 Кбит/сек
Каналы : 2 канала
Channel layout : L R
Частота : 48,0 КГц
Частота кадров : 31,250 кадров/сек (1536 SPF)
Метод сжатия : С потерями
Размер потока : 136 Мбайт (13%)
Заголовок : chi
Язык : Chinese
Service kind : Complete Main
Default : Нет
Forced : Нет
Аудио #2
Идентификатор : 5
Формат : AC-3
Формат/Информация : Audio Coding 3
Коммерческое название : Dolby Digital
Идентификатор кодека : A_AC3
Продолжительность : 1 ч. 38 м.
Вид битрейта : Постоянный
Битрейт : 192 Кбит/сек
Каналы : 2 канала
Channel layout : L R
Частота : 48,0 КГц
Частота кадров : 31,250 кадров/сек (1536 SPF)
Метод сжатия : С потерями
Задержка видео : -67 мс.
Размер потока : 136 Мбайт (13%)
Заголовок : Виктор Береговых
Язык : Russian
Service kind : Complete Main
Default : Да
Forced : Нет
Текст #1
Идентификатор : 3
Формат : UTF-8
Идентификатор кодека : S_TEXT/UTF8
Идентификатор кодека/Информация : UTF-8 Plain Text
Продолжительность : 1 ч. 35 м.
Битрейт : 30 бит/сек
Count of elements : 1024
Размер потока : 21,5 Кбайт (0%)
Заголовок : eng srt
Язык : English
Default : Да
Forced : Нет
Текст #2
Идентификатор : 4
Формат : VobSub
Режим смешивания : zlib
Идентификатор кодека : S_VOBSUB
Идентификатор кодека/Информация : Picture based subtitle format used on DVDs
Продолжительность : 1 ч. 35 м.
Битрейт : 2 474 бит/сек
Count of elements : 1024
Размер потока : 1,70 Мбайт (0%)
Заголовок : eng
Язык : English
Default : Нет
Forced : Нет
Меню
00:00:00.000 : :Chapter 1
00:08:21.301 : :Chapter 2
00:15:33.666 : :Chapter 3
00:23:58.203 : :Chapter 4
00:32:02.854 : :Chapter 5
00:39:41.746 : :Chapter 6
00:49:05.776 : :Chapter 7
00:56:49.206 : :Chapter 8
01:03:31.408 : :Chapter 9
01:13:12.388 : :Chapter 10
01:20:27.790 : :Chapter 11
01:28:06.848 : :Chapter 12

Скриншоты




[Profile] [PM]
Display posts:    
Reply to topic

Current time is: 07-Aug 19:27

All times are UTC + 3



You cannot post new topics in this forum
You cannot reply to topics in this forum
You cannot edit your posts in this forum
You cannot delete your posts in this forum
You cannot vote in polls in this forum
You cannot attach files in this forum
You cannot download files in this forum