Появление человека-невидимки / The Invisible Man Appears (Нобуо Адати) [1949, Япония, ужасы, фантастика, BDRip-1080p] [Arrow video] (СТ: Olskan) (Sub Rus)

Reply to topic
DL-List and Torrent activity
Size:  1.51 GB   |    Registered:  17 days   |    Completed:  2 times

Seeder not seen: 4 days

 
   
 
 
 
Author Message

Faer ®

Gender: Male

Longevity: 7 years 10 months

Posts: 1183

Post 11-Nov-2022 01:57

[Quote]

Появление человека-невидимки / The Invisible Man Appears / Tômei ningen arawaru / 透明人間現わる / Arrow video version
Страна: Япония
Жанр: ужасы, фантастика
Год выпуска: 1949
Продолжительность: 01:22:41
Перевод 1: Субтитры Mr.Faer [Olskan]
Cубтитры: русские
Режиссер: Нобуо Адати
В ролях:
Рюноске Цукигата в роли Кензо Наказато
Мицусабуро Рамон в роли инспектора Мацубары
Даидзиро Нацукава В роли Кёске Сеги
Такико Мицуноэ в роли Рюко Мицуки
Чизуру Китагава в роли Мачико Наказато
Описание: Похитители драгоценностей заинтересовались "зельем невидимости" профессора Наказато, и решили использовать его для похищения самого дорого ювелирного украшения в Японии: ожерелья "Слёзы любви".
Доп. информация: Отреставрированная версия фильма (более подробно написано в титрах, перед самым началом). Перевод без коррекции (пока что).
Работа над релизом:
Видеоряд найден в сети
Ретайминг видео и звука: Starlay
Перевод: Mr.Faer [Olskan]
Релиз

Вторая часть дилогии.
Посмотреть трейлер вконтакте.


Качество видео: BDRip-1080p
Формат видео: MKV
Видео: AVC, 1436х1078, 4:3, 23.976fps, 2500 Кбит/с
Аудио 1: AAC, 48КГц, 113 Кбит/с, стерео
Формат субтитров: softsub (SSA/ASS)

MediaInfo

Общее
Уникальный идентификатор : 110454736281588480155759441131659339104 (0x5318CEF3FC137D44D82BC833B9EC2560)
Полное имя : C:\Users\Ирис\Desktop\The Invisible Man Appears (1949).mkv
Формат : Matroska
Версия формата : Version 4
Размер файла : 1,51 Гбайт
Продолжительность : 1 ч. 22 м.
Общий поток : 2 616 Кбит/сек
Дата кодирования : UTC 2022-11-10 22:41:59
Программа кодирования : mkvmerge v52.0.0 ('Secret For The Mad') 64-bit
Библиотека кодирования : libebml v1.4.1 + libmatroska v1.6.2
Видео
Идентификатор : 1
Формат : AVC
Формат/Информация : Advanced Video Codec
Профиль формата : High@L4.1
Настройки формата : CABAC / 4 Ref Frames
Параметр CABAC формата : Да
Параметр RefFrames формата : 4 кадра
Идентификатор кодека : V_MPEG4/ISO/AVC
Продолжительность : 1 ч. 22 м.
Битрейт : 2 500 Кбит/сек
Ширина : 1 436 пикселей
Высота : 1 078 пикселей
Соотношение сторон : 4:3
Режим частоты кадров : Постоянный
Частота кадров : 23,976 (23976/1000) кадра/сек
Цветовое пространство : YUV
Субдискретизация насыщенности : 4:2:0
Битовая глубина : 8 бит
Тип развёртки : Прогрессивная
Бит/(Пиксели*Кадры) : 0.067
Размер потока : 1,45 Гбайт (96%)
Библиотека кодирования : x264 core 152 r2851M ba24899
Настройки программы : cabac=1 / ref=4 / deblock=1:-1:-1 / analyse=0x3:0x113 / me=umh / subme=9 / psy=1 / psy_rd=1.00:0.15 / mixed_ref=1 / me_range=24 / chroma_me=1 / trellis=2 / 8x8dct=1 / cqm=0 / deadzone=21,11 / fast_pskip=1 / chroma_qp_offset=-3 / threads=16 / lookahead_threads=4 / sliced_threads=0 / nr=0 / decimate=1 / interlaced=0 / bluray_compat=0 / constrained_intra=0 / bframes=3 / b_pyramid=2 / b_adapt=2 / b_bias=0 / direct=3 / weightb=1 / open_gop=0 / weightp=2 / keyint=250 / keyint_min=25 / scenecut=40 / intra_refresh=0 / rc_lookahead=50 / rc=2pass / mbtree=1 / bitrate=2500 / ratetol=1.0 / qcomp=0.60 / qpmin=0 / qpmax=69 / qpstep=4 / cplxblur=20.0 / qblur=0.5 / vbv_maxrate=31250 / vbv_bufsize=31250 / nal_hrd=none / filler=0 / ip_ratio=1.40 / aq=3:1.00
Default : Да
Forced : Нет
Аудио
Идентификатор : 2
Формат : AAC LC
Формат/Информация : Advanced Audio Codec Low Complexity
Идентификатор кодека : A_AAC-2
Продолжительность : 1 ч. 22 м.
Битрейт : 113 Кбит/сек
Каналы : 2 канала
Channel layout : L R
Частота : 48,0 КГц
Частота кадров : 46,875 кадров/сек (1024 SPF)
Метод сжатия : С потерями
Размер потока : 67,1 Мбайт (4%)
Язык : Japanese
Default : Да
Forced : Нет
Текст
Идентификатор : 3
Формат : ASS
Идентификатор кодека : S_TEXT/ASS
Идентификатор кодека/Информация : Advanced Sub Station Alpha
Продолжительность : 1 ч. 22 м.
Битрейт : 100 бит/сек
Count of elements : 727
Метод сжатия : Без потерь
Размер потока : 61,0 Кбайт (0%)
Язык : Russian
Default : Да
Forced : Нет

Скриншоты




The Invisible Man Appears (1949).mkv.torrent
Torrent: Registered [ 2022-11-11 01:57 ]

Download .torrent

Download

61 KB

Status: checked
Completed: 2 times
Size: 1.51 GB
 
[Profile] [PM]
Display posts:    
Reply to topic

Current time is: 28-Nov 14:45

All times are UTC + 3



You can post new topics in this forum
You cannot reply to topics in this forum
You cannot edit your posts in this forum
You cannot delete your posts in this forum
You cannot vote in polls in this forum
You cannot attach files in this forum
You can download files in this forum