Лифт | The Elevator (Джерри Джеймсон | Jerry Jameson) [1974, США, триллер, драма, VHSRip] АО (Horror Maker) + Original Eng

Reply to topic
 
Author Message

Darth_47 ®

Gender: Male

Longevity: 3 years 6 months

Posts: 1401

Post 12-Nov-2022 23:20

[Quote]

Лифт | The Elevator- Страна: США
Жанр: триллер, драма
Год выпуска: 1974
Продолжительность: 1:09:17-Перевод: Авторский (одноголосый закадровый) (Horror Maker)
Субтитры: нет-Режиссер: Джерри Джеймсон | Jerry Jameson-В ролях: Джеймс Фарентино, Родди МакДауэлл, Крэйг Стивенс, Дон Страуд, Тереза Райт, Мирна Лой, Кэрол Линли, Арлин Голонка, Бэрри Ливингстон, Джин Эллисон и др.-Описание: Вооруженный грабитель, страдающий клаустрофобией, убегая после очередного "дела", вместе с группой людей оказывается в ловушке в застрявшем лифте многоэтажного дома. Фильм был снят в здании Crocker Bank Building в центре Лос-Анджелеса в ноябре 1973 года в качестве фильма недели ABC.-Доп. информация: Звук в рипе с Синемагеддона был подвержен минимальной реставрации - убраны щелчки, присутствовавшие в дорожке на протяжении всего фильма, из-за чего смотреть его было буквально больно физически. Кроме того, от фильма были отрезаны 20 секунд в начале и пара секунд в конце, которые не несли никакой смысловой нагрузки для самого фильма и являлись, по сути, телевизионным мусором.- -Релиз

Работа над релизом:
Исходник скачан с cinemageddon.net
Авторский перевод - Horror Maker
Спонсор перевода, сведение звука и сборка релиза - Darth_47
Помощь в реставрации оригинального звука - moNTer
-Качество видео: VHSRip
Формат видео: MKV
Видео: MPEG2 Video 720x576 (4:3) 25fps 6290 kb/s
Аудио 1: Dolby AC3 48000Hz stereo 256kbps [Русский АО (Horror Maker)]
Аудио 2: Dolby AC3 48000Hz stereo 256kbps [Eng]-

MediaInfo

General
Unique ID                      : 144451362030364329898219306094882047613 (0x6CAC5203630BEE0B8E7C09181EEDC67D)
Complete name                  : The Elevator 1974.MPEG2.VHSRip.Rus-Eng.cinemaniacs.mkv
Format                         : Matroska
Format version                 : Version 4
File size                      : 3.29 GiB
Duration                       : 1 h 9 min
Overall bit rate mode          : Variable
Overall bit rate               : 6 804 kb/s
Encoded date                   : UTC 2022-11-12 18:49:57
Writing application            : mkvmerge v35.0.0 ('All The Love In The World') 64-bit
Writing library                : libebml v1.3.9 + libmatroska v1.5.2
Video
ID                             : 1
Format                         : MPEG Video
Format version                 : Version 2
Format profile                 : Main@Main
Format settings                : CustomMatrix / BVOP
Format settings, BVOP          : Yes
Format settings, Matrix        : Custom
Format settings, GOP           : M=3, N=12
Format settings, picture struc : Frame
Codec ID                       : V_MPEG2
Codec ID/Info                  : MPEG 1 or 2 Video
Duration                       : 1 h 9 min
Bit rate mode                  : Variable
Bit rate                       : 6 290 kb/s
Maximum bit rate               : 6 556 kb/s
Width                          : 720 pixels
Height                         : 576 pixels
Display aspect ratio           : 4:3
Frame rate mode                : Constant
Frame rate                     : 25.000 FPS
Standard                       : PAL
Color space                    : YUV
Chroma subsampling             : 4:2:0
Bit depth                      : 8 bits
Scan type                      : Interlaced
Scan order                     : Top Field First
Compression mode               : Lossy
Bits/(Pixel*Frame)             : 0.607
Time code of first frame       : 00:00:19:05
Time code source               : Group of pictures header
GOP, Open/Closed               : Open
Stream size                    : 3.04 GiB (92%)
Title                          : cinemaniacs
Language                       : English
Default                        : Yes
Forced                         : No
Audio #1
ID                             : 2
Format                         : AC-3
Format/Info                    : Audio Coding 3
Commercial name                : Dolby Digital
Codec ID                       : A_AC3
Duration                       : 1 h 9 min
Bit rate mode                  : Constant
Bit rate                       : 256 kb/s
Channel(s)                     : 2 channels
Channel layout                 : L R
Sampling rate                  : 48.0 kHz
Frame rate                     : 31.250 FPS (1536 SPF)
Compression mode               : Lossy
Delay relative to video        : 96 ms
Stream size                    : 127 MiB (4%)
Title                          : Русский АО (Horror Maker)
Language                       : Russian
Service kind                   : Complete Main
Default                        : Yes
Forced                         : No
Audio #2
ID                             : 3
Format                         : AC-3
Format/Info                    : Audio Coding 3
Commercial name                : Dolby Digital
Codec ID                       : A_AC3
Duration                       : 1 h 9 min
Bit rate mode                  : Constant
Bit rate                       : 256 kb/s
Channel(s)                     : 2 channels
Channel layout                 : L R
Sampling rate                  : 48.0 kHz
Frame rate                     : 31.250 FPS (1536 SPF)
Compression mode               : Lossy
Delay relative to video        : 96 ms
Stream size                    : 127 MiB (4%)
Language                       : English
Service kind                   : Complete Main
Default                        : No
Forced                         : No
Menu
00:00:00.000                   : en:Chapter 01
00:04:41.680                   : en:Chapter 02
00:09:41.200                   : en:Chapter 03
00:14:41.680                   : en:Chapter 04
00:19:41.200                   : en:Chapter 05
00:24:41.680                   : en:Chapter 06
00:29:41.200                   : en:Chapter 07
00:34:41.680                   : en:Chapter 08
00:39:41.200                   : en:Chapter 09
00:44:41.680                   : en:Chapter 10
00:49:41.200                   : en:Chapter 11
00:54:41.680                   : en:Chapter 12
00:59:41.200                   : en:Chapter 13
01:04:41.680                   : en:Chapter 14

Скриншоты


[Profile] [PM]
Display posts:    
Reply to topic

Current time is: 28-Nov 13:52

All times are UTC + 3



You cannot post new topics in this forum
You cannot reply to topics in this forum
You cannot edit your posts in this forum
You cannot delete your posts in this forum
You cannot vote in polls in this forum
You cannot attach files in this forum
You cannot download files in this forum