16 навсегда | Forever 16 (Джордж Менделюк | George Mendeluk) [2013, Канада, ужасы, фэнтези, триллер, драма, вампирская тематика, TVRip] ЛД (PARUSSKI) + Sub (Rus) + Original Eng

Reply to topic
 
Author Message

Darth_47 ®

Gender: Male

Longevity: 3 years 6 months

Posts: 1401

Post 14-Nov-2022 19:39

[Quote]

16 навсегда | Forever 16- Страна: Канада
Жанр: ужасы, фэнтези, триллер, драма, вампирская тематика
Год выпуска: 2013
Продолжительность: 1:25:17-Перевод: Любительский (двухголосый закадровый) (PARUSSKI)
Субтитры: русские (Severnyj)-Режиссер: Джордж Менделюк | George Mendeluk-В ролях: Тиера Сковбай, Андреа Рот, Тайлер Джонстон, Джеффри Баллард, Шиван Уильямс, Ричард Хэрмон, Питер Брайант, Лана Лонерган, Аллан Хэрмон, Лиэнн Адачи и др.-Описание: Шестнадцатилетняя Рэйвен Хайгейт не простой подросток, она вампир, и ей приходится уже в который раз менять школу, чтобы никто не узнал её тайну. Но когда местный полицейский узнает секрет девушки, она предлагает Рэйвен помощь в общении со сверстниками в обмен на помощь в поимке серийного убийцы, гуляющего по школе. Девушке не остаётся ничего, кроме как согласиться... Но какой ценой?- -Релиз

Работа над релизом:
Исходник скачан с cinemageddon.net
Субтитровый перевод на слух с английского - Severnyj
Русская двухголосая озвучка - PARUSSKI
Спонсоры перевода - Darth_47, pompilius, MAG3131, EX1900, soonixsan, larik
Спонсор озвучки и сборка релиза - Darth_47
-Качество видео: TVRip
Формат видео: MKV
Видео: Xvid 624x352 29.97fps 1003 kb/s
Аудио 1: Dolby AC3 48000Hz stereo 192kbps [Русский ЛД (PARUSSKI)]
Аудио 2: MP3 48000Hz stereo 128kbps [Eng]
Субтитры: русские (srt, UTF-8)-

MediaInfo

General
Unique ID                      : 170548424209022968001192362401986836970 (0x804E6E84E3853BAB8FEC0FA290F4F9EA)
Complete name                  : Forever 16 2013.XviD.TVRip.Rus-Eng.cinemaniacs.mkv
Format                         : Matroska
Format version                 : Version 4
File size                      : 809 MiB
Duration                       : 1 h 25 min
Overall bit rate               : 1 325 kb/s
Encoded date                   : UTC 2022-11-14 16:11:44
Writing application            : mkvmerge v35.0.0 ('All The Love In The World') 64-bit
Writing library                : libebml v1.3.9 + libmatroska v1.5.2
Video
ID                             : 1
Format                         : MPEG-4 Visual
Format profile                 : Advanced Simple@L5
Format settings                : BVOP2
Format settings, BVOP          : 2
Format settings, QPel          : No
Format settings, GMC           : No warppoints
Format settings, Matrix        : Default (H.263)
Codec ID                       : V_MS/VFW/FOURCC / XVID
Codec ID/Hint                  : XviD
Duration                       : 1 h 25 min
Bit rate                       : 1 003 kb/s
Width                          : 624 pixels
Height                         : 352 pixels
Display aspect ratio           : 16:9
Frame rate mode                : Constant
Frame rate                     : 29.970 (29970/1000) FPS
Color space                    : YUV
Chroma subsampling             : 4:2:0
Bit depth                      : 8 bits
Scan type                      : Progressive
Compression mode               : Lossy
Bits/(Pixel*Frame)             : 0.152
Stream size                    : 612 MiB (76%)
Title                          : cinemaniacs
Writing library                : XviD 1.2.1 (UTC 2008-12-04)
Language                       : English
Default                        : Yes
Forced                         : No
Audio #1
ID                             : 2
Format                         : AC-3
Format/Info                    : Audio Coding 3
Commercial name                : Dolby Digital
Codec ID                       : A_AC3
Duration                       : 1 h 25 min
Bit rate mode                  : Constant
Bit rate                       : 192 kb/s
Channel(s)                     : 2 channels
Channel layout                 : L R
Sampling rate                  : 48.0 kHz
Frame rate                     : 31.250 FPS (1536 SPF)
Compression mode               : Lossy
Stream size                    : 117 MiB (14%)
Title                          : Русский ЛД (PARUSSKI)
Language                       : Russian
Service kind                   : Complete Main
Default                        : Yes
Forced                         : No
Audio #2
ID                             : 3
Format                         : MPEG Audio
Format version                 : Version 1
Format profile                 : Layer 3
Codec ID                       : A_MPEG/L3
Codec ID/Hint                  : MP3
Duration                       : 1 h 25 min
Bit rate mode                  : Constant
Bit rate                       : 128 kb/s
Channel(s)                     : 2 channels
Sampling rate                  : 48.0 kHz
Frame rate                     : 41.667 FPS (1152 SPF)
Compression mode               : Lossy
Stream size                    : 78.1 MiB (10%)
Language                       : English
Default                        : No
Forced                         : No
Text
ID                             : 4
Format                         : UTF-8
Codec ID                       : S_TEXT/UTF8
Codec ID/Info                  : UTF-8 Plain Text
Duration                       : 1 h 24 min
Bit rate                       : 69 b/s
Count of elements              : 837
Stream size                    : 43.1 KiB (0%)
Title                          : Русские (Severnyj)
Language                       : Russian
Default                        : No
Forced                         : No

Скриншоты





Last edited by Darth_47 on 2022-11-14 23:52; edited 2 times in total
[Profile] [PM]

Darth_47 ®

Gender: Male

Longevity: 3 years 6 months

Posts: 1401

Post 14-Nov-2022 19:43 (after 3 minutes)

[Quote]

В очередной раз предлагаю послушать новые голоса на нашем трекере. На этот раз речь идет о ребятах, называющих себя PARUSSKI. Они делают любительскую двухголосую озвучку, что в принципе редкость для нашего сайта) Смотрим, слушаем, высказываем свое мнение. Группа только начала свою жизнь, озвучивают буквально пару месяцев, но лично меня их результат, достигнутый за этот короткий срок, очень удивил! Приятного просмотра!
[Profile] [PM]

Darth_47 ®

Gender: Male

Longevity: 3 years 6 months

Posts: 1401

Post 23-Nov-2022 21:16 (after 9 days)

[Quote]

Кто-нибудь смотрел?
[Profile] [PM]

maks_lev

Gender: Male

Longevity: 1 year

Posts: 245

Location: Тверь

Post 24-Nov-2022 02:42 (after 5 hours)

[Quote]

32957Кто-нибудь смотрел?
пока не найду фильм вот в таком качестве: - не хочу портить впечатление и ломать глаза)
[Profile] [PM]

Darth_47 ®

Gender: Male

Longevity: 3 years 6 months

Posts: 1401

Post 24-Nov-2022 02:48 (after 6 minutes)

[Quote]

32958пока не найду фильм вот в таком качестве
Оно существует. Но никто его не стырил, пока оно лежало в свободном доступе. Так что фиг знает, зальют фильм еще раз когда-нибудь на какую-нибудь площадку или нет.
[Profile] [PM]

Holmes

Gender: Male

Longevity: 5 years 7 months

Posts: 169

Location: СССР

Post 26-Nov-2022 07:51 (after 2 days 5 hours)

[Quote]

32959
32958пока не найду фильм вот в таком качестве
оно лежало в свободном доступе.
на каком ресурсе ?
[Profile] [PM]

Darth_47 ®

Gender: Male

Longevity: 3 years 6 months

Posts: 1401

Post 26-Nov-2022 16:03 (after 8 hours)

[Quote]

32964на каком ресурсе ?
На Амазоне, в ГуглПлей и в магазине Майкрософт. По крайней мере, это те места, где я нашёл. Возможно, было и где-то ещё.
[Profile] [PM]
Display posts:    
Reply to topic

Current time is: 28-Nov 14:59

All times are UTC + 3



You cannot post new topics in this forum
You cannot reply to topics in this forum
You cannot edit your posts in this forum
You cannot delete your posts in this forum
You cannot vote in polls in this forum
You cannot attach files in this forum
You cannot download files in this forum