[3 сезон] За гранью веры: Факт или вымысел / Beyond Belief: Fact or Fiction / Сезон: 3 / Серии: 1-1 из 13 (Тони Рэндел, Аль Шварц, Скип Скулник) [1999, ужасы, фантастика, фэнтези, триллер, детектив, DVDRip] (AVO: Horror Maker) (Original)

Reply to topic
 
Author Message

Faer ®

Gender: Male

Longevity: 7 years 10 months

Posts: 1183

Post 15-Nov-2022 08:13

[Quote]

За гранью веры: Факт или вымысел / Beyond Belief: Fact or Fiction. Третий сезон.
Год выпуска: 1999
Страна: США
Жанр: ужасы, фантастика, фэнтези, триллер, детектив
Перевод: Авторский одноголосый закадровый Horror Maker
Русские субтитры: нет
Режиссёр: Тони Рэндел, Аль Шварц, Скип Скулник, ...
В ролях: Джонатан Фрейкс, Дон Лафонтейн, Джеймс Бролин, Сидни Уолш, Дэвид Эндриол, Роберт Харви, Бэзил Хоффман, Чад Гэбриел, Хулиен Цезарио, Мэттью Бартилсон
Описание: В течении часа вам покажут пять историй. Ни одна из них не имеет логического объяснения, однако некоторые из них действительно случались. Ваша задача определить, что является правдой, а что - ложью.

Качество: DVDRip
Формат: MKV
Видео: AVC, 640х480, 4:3, 29.970fps, 1800 Кбит/с
Аудио: AC3, 48КГц, 256 Кбит/с, стерео - Horror Maker
Аудио 2: E-AC3, 48КГц, 224 Кбит/с, стерео - Original
Субтитры: английские SDH
Работа над релизом:
Видео найдено на TV-Vault
Авторский перевод: Horror Maker
Доработка и сведение звука: Darth_47
Спонсор перевода: EX1900, CROMAG, alex, kandid, archestrategos, MAG3131, Ввикторрр

MediaInfo

Общее
Уникальный идентификатор : 269987522741496616509688438929755130513 (0xCB1DB4996969A9366830BA9A9C6ECA91)
Полное имя : E:\Архив\Фильмы и сериалы\1999 За гранью веры - Факт или вымысел (Beyond Belief Fact or Fiction) season 03\Beyond Belief Fact or Fiction s03e01 1999.x264.WEBRip.Rus-Eng.cinemaniacs.mkv
Формат : Matroska
Версия формата : Version 4
Размер файла : 389 Мбайт
Продолжительность : 45 м. 33 с.
Режим общего битрейта : Переменный
Общий поток : 1 192 Кбит/сек
Дата кодирования : UTC 2022-11-13 12:59:31
Программа кодирования : mkvmerge v35.0.0 ('All The Love In The World') 64-bit
Библиотека кодирования : libebml v1.3.9 + libmatroska v1.5.2
Видео
Идентификатор : 1
Формат : AVC
Формат/Информация : Advanced Video Codec
Профиль формата : Main@L3
Настройки формата : CABAC / 5 Ref Frames
Параметр CABAC формата : Да
Параметр RefFrames формата : 5 кадров
Идентификатор кодека : V_MPEG4/ISO/AVC
Продолжительность : 45 м. 33 с.
Вид битрейта : Переменный
Битрейт : 710 Кбит/сек
Максимальный битрейт : 1 800 Кбит/сек
Ширина : 640 пикселей
Высота : 480 пикселей
Соотношение сторон : 4:3
Режим частоты кадров : Постоянный
Частота кадров : 29,970 (30000/1001) кадров/сек
Цветовое пространство : YUV
Субдискретизация насыщенности : 4:2:0
Битовая глубина : 8 бит
Тип развёртки : Прогрессивная
Бит/(Пиксели*Кадры) : 0.077
Размер потока : 231 Мбайт (60%)
Заголовок : cinemaniacs
Язык : English
Default : Да
Forced : Нет
Цветовой диапазон : Limited
Основные цвета : BT.709
Характеристики трансфера : BT.709
Коэффициенты матрицы : BT.709
Аудио #1
Идентификатор : 2
Формат : AC-3
Формат/Информация : Audio Coding 3
Коммерческое название : Dolby Digital
Идентификатор кодека : A_AC3
Продолжительность : 45 м. 33 с.
Вид битрейта : Постоянный
Битрейт : 256 Кбит/сек
Каналы : 2 канала
Channel layout : L R
Частота : 48,0 КГц
Частота кадров : 31,250 кадров/сек (1536 SPF)
Метод сжатия : С потерями
Размер потока : 83,4 Мбайт (21%)
Заголовок : Русский АО (Horror Maker)
Язык : Russian
Service kind : Complete Main
Default : Да
Forced : Нет
Аудио #2
Идентификатор : 3
Формат : E-AC-3
Формат/Информация : Enhanced AC-3
Коммерческое название : Dolby Digital Plus
Идентификатор кодека : A_EAC3
Продолжительность : 45 м. 33 с.
Вид битрейта : Постоянный
Битрейт : 224 Кбит/сек
Каналы : 2 канала
Channel layout : L R
Частота : 48,0 КГц
Частота кадров : 31,250 кадров/сек (1536 SPF)
Метод сжатия : С потерями
Размер потока : 73,0 Мбайт (19%)
Язык : English
Service kind : Complete Main
Default : Нет
Forced : Нет
Текст #1
Идентификатор : 4
Формат : UTF-8
Идентификатор кодека : S_TEXT/UTF8
Идентификатор кодека/Информация : UTF-8 Plain Text
Продолжительность : 44 м. 45 с.
Битрейт : 82 бит/сек
Count of elements : 841
Размер потока : 26,9 Кбайт (0%)
Язык : English
Default : Нет
Forced : Нет
Текст #2
Идентификатор : 5
Формат : UTF-8
Идентификатор кодека : S_TEXT/UTF8
Идентификатор кодека/Информация : UTF-8 Plain Text
Продолжительность : 45 м. 26 с.
Битрейт : 85 бит/сек
Count of elements : 930
Размер потока : 28,3 Кбайт (0%)
Заголовок : SDH
Язык : English
Default : Нет
Forced : Нет

Скриншоты




[Profile] [PM]
Display posts:    
Reply to topic

Current time is: 28-Nov 14:18

All times are UTC + 3



You cannot post new topics in this forum
You cannot reply to topics in this forum
You cannot edit your posts in this forum
You cannot delete your posts in this forum
You cannot vote in polls in this forum
You cannot attach files in this forum
You cannot download files in this forum