Ночь ужаса | Gabi ng lagim (Томми С. Дэвид, Ларри Сантьяго, Пабло Сантьяго, Феликс Виллар) [1960, Филиппины, ужасы, мистика, VHSRip] ЛО (den904) + Sub (Rus, Eng) + Original Tgl

Ответить на тему
 
Автор Сообщение

Darth_47 ®

Пол: Мужской

Стаж: 3 года 8 месяцев

Сообщений: 1454

Создавать темы 11-Янв-2023 04:18 | #1

[Цитировать]

Ночь ужаса | Gabi ng lagim- Страна: Филиппины
Жанр: ужасы, мистика
Год выпуска: 1960
Продолжительность: 01:12:35-Перевод: Любительский (одноголосый закадровый) (den904)
Субтитры: русские, английские-Режиссер: Томми С. Дэвид (Tommy C. David), Ларри Сантьяго (Larry Santiago), Пабло Сантьяго (Pablo Santiago), Феликс Виллар (Felix Villar)-В ролях: Рамон Ревийя, Сесилия Лопез, Мира Крисоль, Родольфо Кристобал, Dely Atay-atayan, Нэлло Найо, Мирна Делгадо, Cielito Legaspi, Амаду Кортес, Франциско Круз и др.-Описание: Три страшные истории в одном фильме. Первая — про вампира, вторая — про мстящего призрака невинной жертвы, третья — про нечистую силу в заброшенном особняке.- -Релиз

Работа над релизом:
Исходник скачан с cinemageddon.net
Английские субтитры оттуда же, автор - philody
Русские субтитры времён Синемаскопа (переводчик неизвестен)
Озвучка - den904
Спонсоры озвучки - Ввикторрр, Faer
Сведение звука и сборка релиза - Darth_47
-Качество видео: VHSRip
Формат видео: MKV
Видео: DivX 5 352x240 29.97fps 780 kb/s
Аудио 1: Dolby AC3 48000Hz stereo 192kbps [Русский ЛО (den904)]
Аудио 2: MP3 44100Hz stereo 128kbps [Tgl]
Субтитры: русские, английские (srt, UTF-8)-

MediaInfo

General
Unique ID                      : 265359418744405740101249909981872519098 (0xC7A25D747960E9FDA793F0AAF549F7BA)
Complete name                  : Gabi ng lagim 1960.DivX.VHSRip.Rus-Tgl.cinemaniacs.mkv
Format                         : Matroska
Format version                 : Version 4
File size                      : 573 MiB
Duration                       : 1 h 12 min
Overall bit rate               : 1 103 kb/s
Encoded date                   : UTC 2023-01-11 00:55:26
Writing application            : mkvmerge v35.0.0 ('All The Love In The World') 64-bit
Writing library                : libebml v1.3.9 + libmatroska v1.5.2
Video
ID                             : 1
Format                         : MPEG-4 Visual
Format settings                : BVOP
Format settings, BVOP          : Yes
Format settings, QPel          : No
Format settings, GMC           : No warppoints
Format settings, Matrix        : Default (H.263)
Codec ID                       : V_MS/VFW/FOURCC / DX50
Codec ID/Hint                  : DivX 5
Duration                       : 1 h 12 min
Bit rate                       : 780 kb/s
Nominal bit rate               : 4 000 kb/s
Width                          : 352 pixels
Height                         : 240 pixels
Display aspect ratio           : 3:2
Frame rate mode                : Constant
Frame rate                     : 29.970 (30000/1001) FPS
Standard                       : NTSC
Color space                    : YUV
Chroma subsampling             : 4:2:0
Bit depth                      : 8 bits
Scan type                      : Progressive
Compression mode               : Lossy
Bits/(Pixel*Frame)             : 0.308
Stream size                    : 405 MiB (71%)
Title                          : cinemaniacs
Writing library                : DivX 6.2.5 (UTC 2006-06-16)
Language                       : Tagalog
Default                        : Yes
Forced                         : No
Audio #1
ID                             : 2
Format                         : AC-3
Format/Info                    : Audio Coding 3
Commercial name                : Dolby Digital
Codec ID                       : A_AC3
Duration                       : 1 h 12 min
Bit rate mode                  : Constant
Bit rate                       : 192 kb/s
Channel(s)                     : 2 channels
Channel layout                 : L R
Sampling rate                  : 48.0 kHz
Frame rate                     : 31.250 FPS (1536 SPF)
Compression mode               : Lossy
Stream size                    : 99.7 MiB (17%)
Title                          : Русский ЛО (den904)
Language                       : Russian
Service kind                   : Complete Main
Default                        : Yes
Forced                         : No
Audio #2
ID                             : 3
Format                         : MPEG Audio
Format version                 : Version 1
Format profile                 : Layer 3
Codec ID                       : A_MPEG/L3
Codec ID/Hint                  : MP3
Duration                       : 1 h 12 min
Bit rate mode                  : Constant
Bit rate                       : 128 kb/s
Channel(s)                     : 2 channels
Sampling rate                  : 44.1 kHz
Frame rate                     : 38.281 FPS (1152 SPF)
Compression mode               : Lossy
Stream size                    : 66.5 MiB (12%)
Language                       : Tagalog
Default                        : No
Forced                         : No
Text #1
ID                             : 4
Format                         : UTF-8
Codec ID                       : S_TEXT/UTF8
Codec ID/Info                  : UTF-8 Plain Text
Duration                       : 1 h 10 min
Bit rate                       : 69 b/s
Frame rate                     : 0.144 FPS
Count of elements              : 607
Stream size                    : 35.8 KiB (0%)
Title                          : Русские (cinemascope)
Language                       : Russian
Default                        : No
Forced                         : No
Text #2
ID                             : 5
Format                         : UTF-8
Codec ID                       : S_TEXT/UTF8
Codec ID/Info                  : UTF-8 Plain Text
Duration                       : 1 h 10 min
Bit rate                       : 43 b/s
Frame rate                     : 0.144 FPS
Count of elements              : 607
Stream size                    : 22.6 KiB (0%)
Title                          : Английские (philody)
Language                       : English
Default                        : No
Forced                         : No

Скриншоты





[Профиль] [ЛС]
Вернуться к началу
Показать сообщения:    
Ответить на тему

Текущее время: 05-Фев 03:35

Часовой пояс: UTC + 3



Вы не можете начинать темы
Вы не можете отвечать на сообщения
Вы не можете редактировать свои сообщения
Вы не можете удалять свои сообщения
Вы не можете голосовать в опросах
Вы не можете прикреплять файлы к сообщениям
Вы не можете скачивать файлы