Послание из космоса: Галактические войны / Message from Space: Galactic Wars / 宇宙からのメッセージ・銀河大戦 [1-2x27] (Сётаро Исиномори) [1978-1979, Япония, фантастика, DVDRip] (ЛО: Den904) (СТ: Mr.Faer [Olskan])

Ответить на тему
 
Автор Сообщение

Faer ®

Пол: Мужской

Стаж: 8 лет

Сообщений: 1229

Создавать темы 16-Янв-2023 20:53 | #1

[Цитировать]

Послание из космоса: Галактические войны / Message from Space: Galactic Wars / 宇宙からのメッセージ・銀河大戦
Страна: Япония
Жанр: фантастика
Годы выпуска: 1978-1979
Продолжительность: 2 х 00:22:50
Перевод: Любительский одноголосый (Den904)
Перевод 2: Субтитры Mr.Faer [Olskan]
Cубтитры: русские
Режиссер: Сётаро Исиномори
В ролях: Хироюки Санада, Акира Ода, Рю Нишида, Ивао Табучи, Йоко Акитани
Описание: Спустя столетия после того, как люди Земли освоили межзвездные путешествия, человечество процветает по всей галактике. Но неожиданно для всех, одну из колоний захватывает империя Габан. На путь праведной мести и восстановления справедливости встаёт наш герой: недавний выпускник школы звёздных пилотов, Хаято Ген...
Доп. информация: Спин-офф одноименного фильма.
Качество видео: DVDRip
Формат видео: MKV
Видео: AVC, 720х544, 4:3, 23.976fps, 803 Кбит/с
Аудио 1: AC3, 48КГц, 192 Кбит/с, стерео - Den904
Аудио 2: AAC, 48.0КГц, 117 Кбит/с, стерео - Original

MediaInfo

Общее
Уникальный идентификатор : 135991088520881159354550309317498631495 (0x664EEE5314C77CD76C6878E5A8BFF547)
Формат : Matroska
Версия формата : Version 4
Размер файла : 182 Мбайт
Продолжительность : 22 м. 52 с.
Общий поток : 1 114 Кбит/сек
Дата кодирования : UTC 2023-01-16 17:51:26
Программа кодирования : mkvmerge v52.0.0 ('Secret For The Mad') 64-bit
Библиотека кодирования : libebml v1.4.1 + libmatroska v1.6.2
Видео
Идентификатор : 1
Формат : AVC
Формат/Информация : Advanced Video Codec
Профиль формата : High@L4.2
Настройки формата : CABAC / 4 Ref Frames
Параметр CABAC формата : Да
Параметр RefFrames формата : 4 кадра
Идентификатор кодека : V_MPEG4/ISO/AVC
Продолжительность : 22 м. 49 с.
Битрейт : 804 Кбит/сек
Ширина : 720 пикселей
Высота : 544 пикселя
Соотношение сторон : 4:3
Режим частоты кадров : Постоянный
Частота кадров : 23,976 (23976/1000) кадра/сек
Цветовое пространство : YUV
Субдискретизация насыщенности : 4:2:0
Битовая глубина : 8 бит
Тип развёртки : Прогрессивная
Бит/(Пиксели*Кадры) : 0.086
Размер потока : 131 Мбайт (72%)
Заголовок : VIDEO
Библиотека кодирования : x264 core 120 r2164 da19765
Настройки программы : cabac=1 / ref=3 / deblock=1:0:0 / analyse=0x3:0x113 / me=hex / subme=7 / psy=1 / psy_rd=1.00:0.00 / mixed_ref=1 / me_range=16 / chroma_me=1 / trellis=1 / 8x8dct=1 / cqm=0 / deadzone=21,11 / fast_pskip=1 / chroma_qp_offset=-2 / threads=12 / sliced_threads=0 / nr=0 / decimate=1 / interlaced=0 / bluray_compat=0 / constrained_intra=0 / bframes=3 / b_pyramid=2 / b_adapt=1 / b_bias=0 / direct=1 / weightb=1 / open_gop=0 / weightp=2 / keyint=240 / keyint_min=23 / scenecut=40 / intra_refresh=0 / rc_lookahead=40 / rc=crf / mbtree=1 / crf=24.0 / qcomp=0.60 / qpmin=0 / qpmax=69 / qpstep=4 / vbv_maxrate=31250 / vbv_bufsize=31250 / crf_max=0.0 / nal_hrd=none / ip_ratio=1.40 / aq=1:1.00
Язык : Japanese
Default : Да
Forced : Да
Аудио #1
Идентификатор : 2
Формат : AC-3
Формат/Информация : Audio Coding 3
Коммерческое название : Dolby Digital
Идентификатор кодека : A_AC3
Продолжительность : 22 м. 52 с.
Вид битрейта : Постоянный
Битрейт : 192 Кбит/сек
Каналы : 2 канала
Channel layout : L R
Частота : 48,0 КГц
Частота кадров : 31,250 кадров/сек (1536 SPF)
Метод сжатия : С потерями
Размер потока : 31,4 Мбайт (17%)
Заголовок : Den904
Язык : Russian
Service kind : Complete Main
Default : Да
Forced : Нет
Аудио #2
Идентификатор : 3
Формат : AAC LC
Формат/Информация : Advanced Audio Codec Low Complexity
Идентификатор кодека : A_AAC-2
Продолжительность : 22 м. 48 с.
Битрейт : 117 Кбит/сек
Каналы : 2 канала
Channel layout : L R
Частота : 48,0 КГц
Частота кадров : 46,875 кадров/сек (1024 SPF)
Метод сжатия : С потерями
Размер потока : 19,1 Мбайт (10%)
Заголовок : AUDIO ENG
Язык : Japanese
Default : Нет
Forced : Нет
Текст
Идентификатор : 4
Формат : ASS
Идентификатор кодека : S_TEXT/ASS
Идентификатор кодека/Информация : Advanced Sub Station Alpha
Продолжительность : 22 м. 50 с.
Битрейт : 106 бит/сек
Count of elements : 260
Метод сжатия : Без потерь
Размер потока : 17,8 Кбайт (0%)
Язык : Russian
Default : Да
Forced : Нет

Скриншоты






Последний раз редактировалось: Faer (2023-01-16 20:56), всего редактировалось 1 раз
[Профиль] [ЛС]
Вернуться к началу

Faer ®

Пол: Мужской

Стаж: 8 лет

Сообщений: 1229

Создавать темы 16-Янв-2023 20:55 | #2 (спустя 1 минута)

[Цитировать]

Теперь с озвучкой!
[Профиль] [ЛС]
Вернуться к началу

CROMAG

Пол: Мужской

Стаж: 7 лет 4 месяца

Сообщений: 3755

Откуда: Прибалтика

Создавать темы 16-Янв-2023 21:45 | #3 (спустя 50 минут)

[Цитировать]

Качайте Остаюсь на раздаче
[Профиль] [ЛС]
Вернуться к началу
Показать сообщения:    
Ответить на тему

Текущее время: 05-Фев 04:05

Часовой пояс: UTC + 3



Вы не можете начинать темы
Вы не можете отвечать на сообщения
Вы не можете редактировать свои сообщения
Вы не можете удалять свои сообщения
Вы не можете голосовать в опросах
Вы не можете прикреплять файлы к сообщениям
Вы не можете скачивать файлы