За гранью веры: Факт или вымысел | Beyond Belief: Fact or Fiction | Сезон 4, серии: 1-5 из 13 (Тони Рэндел (Tony Randel) и др.) [2002, США, ужасы, фантастика, фэнтези, триллер, детектив, WEBRip 480p] АО (Horror Maker) + Sub (Eng) + Original Eng

Ответить на тему
 
Автор Сообщение

Darth_47 ®

Пол: Мужской

Стаж: 3 года 8 месяцев

Сообщений: 1454

Создавать темы 18-Янв-2023 00:31 | #1

[Цитировать]

За гранью веры: Факт или вымысел | Beyond Belief: Fact or Fiction- Страна: США
Жанр: ужасы, фантастика, фэнтези, триллер, детектив
Год выпуска: 2002
Продолжительность: 13 серий по ~ 00:45:00-Перевод: Авторский (одноголосый закадровый) (Horror Maker)
Субтитры: английские для слабослышащих-Режиссер: Тони Рэндел (Tony Randel) и др.-В ролях: Джонатан Фрейкс, Кэмпбелл Лэйн, Сидни Уолш, Дэвид Эндриол, Роберт Харви, Бэзил Хоффман, Чад Гэбриел, Хулиен Цезарио, Мэттью Бартилсон и др.-Описание: В течение часа вам покажут пять историй. Ни одна из них не имеет логического объяснения, однако некоторые из них действительно случались. Ваша задача определить, что является правдой, а что - вымыслом.- -Релиз

Работа над релизом:
Видеоряд скачан с tv-vault.me
Авторский перевод - Horror Maker
Спонсоры перевода - EX1900, pompilius
Сведение звука и сборка релиза - Darth_47
-Качество видео: WEBRip 480p
Формат видео: MKV
Видео: MPEG4 Video (H264) 640x480 23.976fps 811 kb/s
Аудио 1: Dolby AC3 48000Hz stereo 256kbps Русский АО (Horror Maker)
Аудио 2: DD+ 48000Hz stereo 224kbps English
Субтитры: английские для слабослышащих (srt, UTF-8)-

MediaInfo

General
Unique ID                      : 26192203613926932267565863086891314846 (0x13B46F573DE9B47C3D2CF87D7775AE9E)
Complete name                  : Beyond Belief Fact or Fiction s04e01 2002.x264.WEBRip.Rus-Eng.cinemaniacs.mkv
Format                         : Matroska
Format version                 : Version 4
File size                      : 412 MiB
Duration                       : 44 min 30 s
Overall bit rate               : 1 293 kb/s
Encoded date                   : UTC 2023-01-12 21:28:52
Writing application            : mkvmerge v35.0.0 ('All The Love In The World') 64-bit
Writing library                : libebml v1.3.9 + libmatroska v1.5.2
Video
ID                             : 1
Format                         : AVC
Format/Info                    : Advanced Video Codec
Format profile                 : Main@L3
Format settings                : CABAC / 5 Ref Frames
Format settings, CABAC         : Yes
Format settings, Reference fra : 5 frames
Codec ID                       : V_MPEG4/ISO/AVC
Duration                       : 44 min 30 s
Bit rate                       : 811 kb/s
Width                          : 640 pixels
Original width                 : 720 pixels
Height                         : 480 pixels
Display aspect ratio           : 4:3
Frame rate mode                : Constant
Frame rate                     : 23.976 (24000/1001) FPS
Color space                    : YUV
Chroma subsampling             : 4:2:0
Bit depth                      : 8 bits
Scan type                      : Progressive
Bits/(Pixel*Frame)             : 0.110
Stream size                    : 258 MiB (63%)
Title                          : cinemaniacs
Language                       : English
Default                        : Yes
Forced                         : No
Color range                    : Limited
Color primaries                : BT.709
Transfer characteristics       : BT.709
Matrix coefficients            : BT.709
Audio #1
ID                             : 2
Format                         : AC-3
Format/Info                    : Audio Coding 3
Commercial name                : Dolby Digital
Codec ID                       : A_AC3
Duration                       : 44 min 30 s
Bit rate mode                  : Constant
Bit rate                       : 256 kb/s
Channel(s)                     : 2 channels
Channel layout                 : L R
Sampling rate                  : 48.0 kHz
Frame rate                     : 31.250 FPS (1536 SPF)
Compression mode               : Lossy
Stream size                    : 81.5 MiB (20%)
Title                          : Русский АО (Horror Maker)
Language                       : Russian
Service kind                   : Complete Main
Default                        : Yes
Forced                         : No
Audio #2
ID                             : 3
Format                         : E-AC-3
Format/Info                    : Enhanced AC-3
Commercial name                : Dolby Digital Plus
Codec ID                       : A_EAC3
Duration                       : 44 min 30 s
Bit rate mode                  : Constant
Bit rate                       : 224 kb/s
Channel(s)                     : 2 channels
Channel layout                 : L R
Sampling rate                  : 48.0 kHz
Frame rate                     : 31.250 FPS (1536 SPF)
Compression mode               : Lossy
Stream size                    : 71.3 MiB (17%)
Language                       : English
Service kind                   : Complete Main
Default                        : No
Forced                         : No
Text
ID                             : 4
Format                         : UTF-8
Codec ID                       : S_TEXT/UTF8
Codec ID/Info                  : UTF-8 Plain Text
Duration                       : 43 min 47 s
Bit rate                       : 79 b/s
Frame rate                     : 0.301 FPS
Count of elements              : 792
Stream size                    : 25.5 KiB (0%)
Title                          : English [SDH]
Language                       : English
Default                        : No
Forced                         : No

Скриншоты


[Профиль] [ЛС]
Вернуться к началу
Показать сообщения:    
Ответить на тему

Текущее время: 05-Фев 04:19

Часовой пояс: UTC + 3



Вы не можете начинать темы
Вы не можете отвечать на сообщения
Вы не можете редактировать свои сообщения
Вы не можете удалять свои сообщения
Вы не можете голосовать в опросах
Вы не можете прикреплять файлы к сообщениям
Вы не можете скачивать файлы