Чон-и / Jung E (Ён Сан Хо) [2023, Корея, приключения, драма, фантастика, WEB-DLRip 1080p] (Netflix) (Sub Rus)

Ответить на тему
 
Автор Сообщение

Faer ®

Пол: Мужской

Стаж: 8 лет

Сообщений: 1229

Создавать темы 21-Янв-2023 09:44 | #1

[Цитировать]

Чон-и / Jung E
Страна: Корея
Жанр: приключения, драма, фантастика
Год выпуска: 2023
Продолжительность: 0ё:39:45
Перевод 2: Субтитры Netflix
Cубтитры: русские
Режиссер: Ён Сан Хо
Описание: 22 век. Земля необитаема. Исход гражданской войны зависит от клонирования мозга элитного солдата, для создания робота-наемника.

Качество видео: WEB-DLRip 1080p
Формат видео: MKV
Видео: HEVC, 1920*1036, 1.85:1, 23.976fps, 4844 Кбит/с
Аудио 1: AAC, 48КГц, 768 Кбит/с, 6 каналов - Корейский
Аудио 2: AAC, 48КГц, 768 Кбит/с, 6 каналов - Английский
Формат субтитров: softsub (SRT)

MediaInfo

Общее
Уникальный идентификатор : 148757999128617549787545929873407647639 (0x6FE9BF9D9F9C9F3666597A149F489F97)
Полное имя : C:\Users\Ирис\Desktop\Jung_E.2023.1080p.NF.Dual.Audio.WEBRip.AAC5.1.10bits.x265-Rapta.mkv
Формат : Matroska
Версия формата : Version 4
Размер файла : 1,11 Гбайт
Продолжительность : 1 ч. 39 м.
Общий поток : 1 593 Кбит/сек
Программа кодирования : Lavf58.76.100
Библиотека кодирования : Lavf58.76.100
ErrorDetectionType : Per level 1
Видео
Идентификатор : 1
Формат : HEVC
Формат/Информация : High Efficiency Video Coding
Профиль формата : Main 10@L4@Main
Идентификатор кодека : V_MPEGH/ISO/HEVC
Продолжительность : 1 ч. 39 м.
Битрейт : 4 844 Кбит/сек
Ширина : 1 920 пикселей
Высота : 1 036 пикселей
Соотношение сторон : 1,85:1
Режим частоты кадров : Переменный
Частота кадров : 23,976 кадра/сек
Цветовое пространство : YUV
Субдискретизация насыщенности : 4:2:0
Битовая глубина : 10 бит
Бит/(Пиксели*Кадры) : 0.102
Размер потока : 3,38 Гбайт
Библиотека кодирования : x265 3.5+19-8003e4382:[Windows][GCC 11.2.0][64 bit] 10bit
Настройки программы : cpuid=1111039 / frame-threads=4 / numa-pools=16 / wpp / no-pmode / no-pme / no-psnr / no-ssim / log-level=2 / input-csp=1 / input-res=1920x1036 / interlace=0 / total-frames=0 / level-idc=0 / high-tier=1 / uhd-bd=0 / ref=3 / no-allow-non-conformance / no-repeat-headers / annexb / no-aud / no-eob / no-eos / no-hrd / info / hash=0 / no-temporal-layers / open-gop / min-keyint=23 / keyint=250 / gop-lookahead=0 / bframes=4 / b-adapt=2 / b-pyramid / bframe-bias=0 / rc-lookahead=20 / lookahead-slices=6 / scenecut=40 / no-hist-scenecut / radl=0 / no-splice / no-intra-refresh / ctu=64 / min-cu-size=8 / no-rect / no-amp / max-tu-size=32 / tu-inter-depth=1 / tu-intra-depth=1 / limit-tu=0 / rdoq-level=0 / dynamic-rd=0.00 / no-ssim-rd / signhide / no-tskip / nr-intra=0 / nr-inter=0 / no-constrained-intra / no-strong-intra-smoothing / max-merge=3 / limit-refs=1 / no-limit-modes / me=1 / subme=2 / merange=57 / temporal-mvp / no-frame-dup / no-hme / weightp / no-weightb / no-analyze-src-pics / deblock=-1:-1 / no-sao / no-sao-non-deblock / rd=3 / selective-sao=0 / early-skip / rskip / no-fast-intra / no-tskip-fast / no-cu-lossless / b-intra / no-splitrd-skip / rdpenalty=0 / psy-rd=2.00 / psy-rdoq=0.00 / no-rd-refine / no-lossless / cbqpoffs=0 / crqpoffs=0 / rc=crf / crf=25.5 / qcomp=0.60 / qpstep=4 / stats-write=0 / stats-read=0 / ipratio=1.40 / pbratio=1.30 / aq-mode=2 / aq-strength=1.00 / cutree / zone-count=0 / no-strict-cbr / qg-size=32 / no-rc-grain / qpmax=69 / qpmin=0 / no-const-vbv / sar=1 / overscan=0 / videoformat=5 / range=0 / colorprim=2 / transfer=2 / colormatrix=2 / chromaloc=0 / display-window=0 / cll=0,0 / min-luma=0 / max-luma=1023 / log2-max-poc-lsb=8 / vui-timing-info / vui-hrd-info / slices=1 / no-opt-qp-pps / no-opt-ref-list-length-pps / no-multi-pass-opt-rps / scenecut-bias=0.05 / hist-threshold=0.03 / no-opt-cu-delta-qp / no-aq-motion / no-hdr10 / no-hdr10-opt / no-dhdr10-opt / no-idr-recovery-sei / analysis-reuse-level=0 / analysis-save-reuse-level=0 / analysis-load-reuse-level=0 / scale-factor=0 / refine-intra=0 / refine-inter=0 / refine-mv=1 / refine-ctu-distortion=0 / no-limit-sao / ctu-info=0 / no-lowpass-dct / refine-analysis-type=0 / copy-pic=1 / max-ausize-factor=1.0 / no-dynamic-refine / no-single-sei / no-hevc-aq / no-svt / no-field / qp-adaptation-range=1.00 / scenecut-aware-qp=0conformance-window-offsets / right=0 / bottom=0 / decoder-max-rate=0 / no-vbv-live-multi-pass
Язык : Korean
Default : Да
Forced : Нет
Цветовой диапазон : Limited
Аудио #1
Идентификатор : 2
Формат : AAC LC
Формат/Информация : Advanced Audio Codec Low Complexity
Идентификатор кодека : A_AAC-2
Продолжительность : 1 ч. 39 м.
Битрейт : 768 Кбит/сек
Каналы : 6 каналов
Channel layout : C L R Ls Rs LFE
Частота : 48,0 КГц
Частота кадров : 46,875 кадров/сек (1024 SPF)
Метод сжатия : С потерями
Размер потока : 548 Мбайт (48%)
Библиотека кодирования : Lavc58.134.100 aac
Язык : Korean
Default : Да
Forced : Нет
Аудио #2
Идентификатор : 3
Формат : AAC LC
Формат/Информация : Advanced Audio Codec Low Complexity
Идентификатор кодека : A_AAC-2
Продолжительность : 1 ч. 39 м.
Битрейт : 640 Кбит/сек
Каналы : 6 каналов
Channel layout : C L R Ls Rs LFE
Частота : 48,0 КГц
Частота кадров : 46,875 кадров/сек (1024 SPF)
Метод сжатия : С потерями
Размер потока : 457 Мбайт (40%)
Библиотека кодирования : Lavc58.134.100 aac
Язык : English
Default : Нет
Forced : Нет
Текст #1
Идентификатор : 4
Формат : UTF-8
Идентификатор кодека : S_TEXT/UTF8
Идентификатор кодека/Информация : UTF-8 Plain Text
Продолжительность : 1 ч. 37 м.
Битрейт : 49 бит/сек
Count of elements : 1465
Размер потока : 35,3 Кбайт (0%)
Язык : Korean
Default : Нет
Forced : Нет
Текст #2
Идентификатор : 5
Формат : UTF-8
Идентификатор кодека : S_TEXT/UTF8
Идентификатор кодека/Информация : UTF-8 Plain Text
Продолжительность : 1 ч. 37 м.
Битрейт : 73 бит/сек
Count of elements : 1465
Размер потока : 52,7 Кбайт (0%)
Заголовок : SDH
Язык : Korean
Default : Нет
Forced : Нет
Текст #3
Идентификатор : 6
Формат : UTF-8
Идентификатор кодека : S_TEXT/UTF8
Идентификатор кодека/Информация : UTF-8 Plain Text
Продолжительность : 1 ч. 17 м.
Битрейт : 2 бит/сек
Count of elements : 53
Размер потока : 1,44 Кбайт (0%)
Заголовок : Forced
Язык : English
Default : Нет
Forced : Нет
Текст #4
Идентификатор : 7
Формат : UTF-8
Идентификатор кодека : S_TEXT/UTF8
Идентификатор кодека/Информация : UTF-8 Plain Text
Продолжительность : 1 ч. 33 м.
Битрейт : 43 бит/сек
Count of elements : 904
Размер потока : 29,2 Кбайт (0%)
Язык : English
Default : Да
Forced : Нет
Текст #5
Идентификатор : 8
Формат : UTF-8
Идентификатор кодека : S_TEXT/UTF8
Идентификатор кодека/Информация : UTF-8 Plain Text
Продолжительность : 1 ч. 38 м.
Битрейт : 51 бит/сек
Count of elements : 1234
Размер потока : 36,6 Кбайт (0%)
Заголовок : SDH
Язык : English
Default : Нет
Forced : Нет
Текст #6
Идентификатор : 9
Формат : UTF-8
Идентификатор кодека : S_TEXT/UTF8
Идентификатор кодека/Информация : UTF-8 Plain Text
Продолжительность : 1 ч. 38 м.
Битрейт : 62 бит/сек
Count of elements : 836
Размер потока : 44,5 Кбайт (0%)
Язык : Arabic
Default : Нет
Forced : Нет
Текст #7
Идентификатор : 10
Формат : UTF-8
Идентификатор кодека : S_TEXT/UTF8
Идентификатор кодека/Информация : UTF-8 Plain Text
Продолжительность : 1 ч. 38 м.
Битрейт : 34 бит/сек
Count of elements : 838
Размер потока : 24,4 Кбайт (0%)
Язык : Czech
Default : Нет
Forced : Нет
Текст #8
Идентификатор : 11
Формат : UTF-8
Идентификатор кодека : S_TEXT/UTF8
Идентификатор кодека/Информация : UTF-8 Plain Text
Продолжительность : 1 ч. 38 м.
Битрейт : 33 бит/сек
Count of elements : 840
Размер потока : 23,9 Кбайт (0%)
Язык : Danish
Default : Нет
Forced : Нет
Текст #9
Идентификатор : 12
Формат : UTF-8
Идентификатор кодека : S_TEXT/UTF8
Идентификатор кодека/Информация : UTF-8 Plain Text
Продолжительность : 1 ч. 38 м.
Битрейт : 34 бит/сек
Count of elements : 807
Размер потока : 24,4 Кбайт (0%)
Язык : German
Default : Нет
Forced : Нет
Текст #10
Идентификатор : 13
Формат : UTF-8
Идентификатор кодека : S_TEXT/UTF8
Идентификатор кодека/Информация : UTF-8 Plain Text
Продолжительность : 1 ч. 38 м.
Битрейт : 55 бит/сек
Count of elements : 835
Размер потока : 39,9 Кбайт (0%)
Язык : Greek
Default : Нет
Forced : Нет
Текст #11
Идентификатор : 14
Формат : UTF-8
Идентификатор кодека : S_TEXT/UTF8
Идентификатор кодека/Информация : UTF-8 Plain Text
Продолжительность : 1 ч. 38 м.
Битрейт : 33 бит/сек
Count of elements : 815
Размер потока : 24,3 Кбайт (0%)
Заголовок : Latin American
Язык : Spanish
Default : Нет
Forced : Нет
Текст #12
Идентификатор : 15
Формат : UTF-8
Идентификатор кодека : S_TEXT/UTF8
Идентификатор кодека/Информация : UTF-8 Plain Text
Продолжительность : 1 ч. 38 м.
Битрейт : 35 бит/сек
Count of elements : 873
Размер потока : 25,3 Кбайт (0%)
Язык : Spanish
Default : Нет
Forced : Нет
Текст #13
Идентификатор : 16
Формат : UTF-8
Идентификатор кодека : S_TEXT/UTF8
Идентификатор кодека/Информация : UTF-8 Plain Text
Продолжительность : 1 ч. 38 м.
Битрейт : 32 бит/сек
Count of elements : 675
Размер потока : 23,2 Кбайт (0%)
Язык : Finnish
Default : Нет
Forced : Нет
Текст #14
Идентификатор : 17
Формат : UTF-8
Идентификатор кодека : S_TEXT/UTF8
Идентификатор кодека/Информация : UTF-8 Plain Text
Продолжительность : 1 ч. 37 м.
Битрейт : 34 бит/сек
Count of elements : 818
Размер потока : 24,8 Кбайт (0%)
Язык : fil
Default : Нет
Forced : Нет
Текст #15
Идентификатор : 18
Формат : UTF-8
Идентификатор кодека : S_TEXT/UTF8
Идентификатор кодека/Информация : UTF-8 Plain Text
Продолжительность : 1 ч. 38 м.
Битрейт : 32 бит/сек
Count of elements : 819
Размер потока : 23,5 Кбайт (0%)
Язык : French
Default : Нет
Forced : Нет
Текст #16
Идентификатор : 19
Формат : UTF-8
Идентификатор кодека : S_TEXT/UTF8
Идентификатор кодека/Информация : UTF-8 Plain Text
Продолжительность : 1 ч. 38 м.
Битрейт : 56 бит/сек
Count of elements : 795
Размер потока : 40,1 Кбайт (0%)
Язык : Hebrew
Default : Нет
Forced : Нет
Текст #17
Идентификатор : 20
Формат : UTF-8
Идентификатор кодека : S_TEXT/UTF8
Идентификатор кодека/Информация : UTF-8 Plain Text
Продолжительность : 1 ч. 38 м.
Битрейт : 31 бит/сек
Count of elements : 814
Размер потока : 22,2 Кбайт (0%)
Язык : Croatian
Default : Нет
Forced : Нет
Текст #18
Идентификатор : 21
Формат : UTF-8
Идентификатор кодека : S_TEXT/UTF8
Идентификатор кодека/Информация : UTF-8 Plain Text
Продолжительность : 1 ч. 38 м.
Битрейт : 32 бит/сек
Count of elements : 792
Размер потока : 23,4 Кбайт (0%)
Язык : Hungarian
Default : Нет
Forced : Нет
Текст #19
Идентификатор : 22
Формат : UTF-8
Идентификатор кодека : S_TEXT/UTF8
Идентификатор кодека/Информация : UTF-8 Plain Text
Продолжительность : 1 ч. 36 м.
Битрейт : 38 бит/сек
Count of elements : 810
Размер потока : 27,1 Кбайт (0%)
Язык : Indonesian
Default : Нет
Forced : Нет
Текст #20
Идентификатор : 23
Формат : UTF-8
Идентификатор кодека : S_TEXT/UTF8
Идентификатор кодека/Информация : UTF-8 Plain Text
Продолжительность : 1 ч. 38 м.
Битрейт : 35 бит/сек
Count of elements : 761
Размер потока : 25,5 Кбайт (0%)
Язык : Italian
Default : Нет
Forced : Нет
Текст #21
Идентификатор : 24
Формат : UTF-8
Идентификатор кодека : S_TEXT/UTF8
Идентификатор кодека/Информация : UTF-8 Plain Text
Продолжительность : 1 ч. 37 м.
Битрейт : 37 бит/сек
Count of elements : 818
Размер потока : 27,0 Кбайт (0%)
Язык : Japanese
Default : Нет
Forced : Нет
Текст #22
Идентификатор : 25
Формат : UTF-8
Идентификатор кодека : S_TEXT/UTF8
Идентификатор кодека/Информация : UTF-8 Plain Text
Продолжительность : 1 ч. 33 м.
Битрейт : 34 бит/сек
Count of elements : 847
Размер потока : 23,6 Кбайт (0%)
Язык : Malay
Default : Нет
Forced : Нет
Текст #23
Идентификатор : 26
Формат : UTF-8
Идентификатор кодека : S_TEXT/UTF8
Идентификатор кодека/Информация : UTF-8 Plain Text
Продолжительность : 1 ч. 38 м.
Битрейт : 33 бит/сек
Count of elements : 792
Размер потока : 23,6 Кбайт (0%)
Язык : Norwegian Bokmal
Default : Нет
Forced : Нет
Текст #24
Идентификатор : 27
Формат : UTF-8
Идентификатор кодека : S_TEXT/UTF8
Идентификатор кодека/Информация : UTF-8 Plain Text
Продолжительность : 1 ч. 38 м.
Битрейт : 33 бит/сек
Count of elements : 824
Размер потока : 23,9 Кбайт (0%)
Язык : Dutch
Default : Нет
Forced : Нет
Текст #25
Идентификатор : 28
Формат : UTF-8
Идентификатор кодека : S_TEXT/UTF8
Идентификатор кодека/Информация : UTF-8 Plain Text
Продолжительность : 1 ч. 38 м.
Битрейт : 30 бит/сек
Count of elements : 831
Размер потока : 21,7 Кбайт (0%)
Язык : Polish
Default : Нет
Forced : Нет
Текст #26
Идентификатор : 29
Формат : UTF-8
Идентификатор кодека : S_TEXT/UTF8
Идентификатор кодека/Информация : UTF-8 Plain Text
Продолжительность : 1 ч. 38 м.
Битрейт : 31 бит/сек
Count of elements : 823
Размер потока : 22,6 Кбайт (0%)
Заголовок : Brazilian
Язык : Portuguese
Default : Нет
Forced : Нет
Текст #27
Идентификатор : 30
Формат : UTF-8
Идентификатор кодека : S_TEXT/UTF8
Идентификатор кодека/Информация : UTF-8 Plain Text
Продолжительность : 1 ч. 38 м.
Битрейт : 32 бит/сек
Count of elements : 811
Размер потока : 23,1 Кбайт (0%)
Язык : Portuguese
Default : Нет
Forced : Нет
Текст #28
Идентификатор : 31
Формат : UTF-8
Идентификатор кодека : S_TEXT/UTF8
Идентификатор кодека/Информация : UTF-8 Plain Text
Продолжительность : 1 ч. 38 м.
Битрейт : 37 бит/сек
Count of elements : 826
Размер потока : 26,6 Кбайт (0%)
Язык : Romanian
Default : Нет
Forced : Нет
Текст #29
Идентификатор : 32
Формат : UTF-8
Идентификатор кодека : S_TEXT/UTF8
Идентификатор кодека/Информация : UTF-8 Plain Text
Продолжительность : 1 ч. 38 м.
Битрейт : 55 бит/сек
Count of elements : 825
Размер потока : 39,8 Кбайт (0%)
Язык : Russian
Default : Нет
Forced : Нет
Текст #30
Идентификатор : 33
Формат : UTF-8
Идентификатор кодека : S_TEXT/UTF8
Идентификатор кодека/Информация : UTF-8 Plain Text
Продолжительность : 1 ч. 38 м.
Битрейт : 32 бит/сек
Count of elements : 744
Размер потока : 23,4 Кбайт (0%)
Язык : Swedish
Default : Нет
Forced : Нет
Текст #31
Идентификатор : 34
Формат : UTF-8
Идентификатор кодека : S_TEXT/UTF8
Идентификатор кодека/Информация : UTF-8 Plain Text
Продолжительность : 1 ч. 38 м.
Битрейт : 94 бит/сек
Count of elements : 873
Размер потока : 67,7 Кбайт (0%)
Язык : Thai
Default : Нет
Forced : Нет
Текст #32
Идентификатор : 35
Формат : UTF-8
Идентификатор кодека : S_TEXT/UTF8
Идентификатор кодека/Информация : UTF-8 Plain Text
Продолжительность : 1 ч. 38 м.
Битрейт : 33 бит/сек
Count of elements : 825
Размер потока : 24,2 Кбайт (0%)
Язык : Turkish
Default : Нет
Forced : Нет
Текст #33
Идентификатор : 36
Формат : UTF-8
Идентификатор кодека : S_TEXT/UTF8
Идентификатор кодека/Информация : UTF-8 Plain Text
Продолжительность : 1 ч. 38 м.
Битрейт : 57 бит/сек
Count of elements : 847
Размер потока : 41,0 Кбайт (0%)
Язык : Ukrainian
Default : Нет
Forced : Нет
Текст #34
Идентификатор : 37
Формат : UTF-8
Идентификатор кодека : S_TEXT/UTF8
Идентификатор кодека/Информация : UTF-8 Plain Text
Продолжительность : 1 ч. 38 м.
Битрейт : 51 бит/сек
Count of elements : 801
Размер потока : 37,1 Кбайт (0%)
Язык : Vietnamese
Default : Нет
Forced : Нет
Текст #35
Идентификатор : 38
Формат : UTF-8
Идентификатор кодека : S_TEXT/UTF8
Идентификатор кодека/Информация : UTF-8 Plain Text
Продолжительность : 1 ч. 38 м.
Битрейт : 36 бит/сек
Count of elements : 875
Размер потока : 26,1 Кбайт (0%)
Заголовок : Simplified
Язык : Chinese
Default : Нет
Forced : Нет
Текст #36
Идентификатор : 39
Формат : UTF-8
Идентификатор кодека : S_TEXT/UTF8
Идентификатор кодека/Информация : UTF-8 Plain Text
Продолжительность : 1 ч. 38 м.
Битрейт : 37 бит/сек
Count of elements : 892
Размер потока : 26,5 Кбайт (0%)
Заголовок : Traditional
Язык : Chinese
Default : Нет
Forced : Нет
Меню
01:34:22.000 : :End Credits

Скриншоты




[Профиль] [ЛС]
Вернуться к началу

maks_lev

Пол: Мужской

Стаж: 1 год 2 месяца

Сообщений: 262

Откуда: Тверь

Создавать темы 22-Янв-2023 05:44 | #2 (спустя 19 часов)

[Цитировать]

Тоже жду выхода этого фильма в русской озвучке) Если что, то у меня есть итальянский WEB-DLRip 1080p с полноценными 5.1 аудиодорогами на итальянском и корейском почти 10 гб весом.
[Профиль] [ЛС]
Вернуться к началу

Faer ®

Пол: Мужской

Стаж: 8 лет

Сообщений: 1229

Создавать темы 22-Янв-2023 05:46 | #3 (спустя 1 минута)

[Цитировать]

33129Тоже жду выхода этого фильма в русской озвучке)
RealFake озвучили.
33129Если что, то у меня есть итальянский WEB-DLRip 1080p с полноценными 5.1 аудиодорогами на итальянском и корейском почти 10 гб весом.
Если русская дорога подойдёт по длине - отлично.
[Профиль] [ЛС]
Вернуться к началу

maks_lev

Пол: Мужской

Стаж: 1 год 2 месяца

Сообщений: 262

Откуда: Тверь

Создавать темы 22-Янв-2023 05:55 | #4 (спустя 8 минут)

[Цитировать]

33130RealFake озвучили.
у меня есть многоголоска слил с контанка - хз чья озвучка (НЕ RealFake точно), но качественнее любительской двухголоски, но как обычно с рекламой всё грёбаной, без рекламы нету.
уже фильмов 20 наверное так лежит - Монтеру только работать и работать... я такое не умею подгонять увы(((


Последний раз редактировалось: maks_lev (2023-01-22 06:46), всего редактировалось 2 раз(а)
[Профиль] [ЛС]
Вернуться к началу

maks_lev

Пол: Мужской

Стаж: 1 год 2 месяца

Сообщений: 262

Откуда: Тверь

Создавать темы 22-Янв-2023 05:59 | #5 (спустя 4 минуты)

[Цитировать]

33130RealFake озвучили.
нашёл вроде на дораме без рекламы - если выцеплю попробую синхронизировать.
[Профиль] [ЛС]
Вернуться к началу

maks_lev

Пол: Мужской

Стаж: 1 год 2 месяца

Сообщений: 262

Откуда: Тверь

Создавать темы 22-Янв-2023 06:18 | #6 (спустя 19 минут)

[Цитировать]

33132попробую синхронизировать
на кинозале вчера выложили оказывается) кому нужно можно взять там) и HDR версия и обычная и дороги 5.1 и тд. Уж если кому нужны итальянские дороги то говорите сейчас, пока не удалил))) себе фильм соберу явно без них) если фильм будем релизить тут, то наверное есть смысл синхронить и многоголоску) она мне гораздо приятнее на слух чем версия от RealFake.
[Профиль] [ЛС]
Вернуться к началу

Faer ®

Пол: Мужской

Стаж: 8 лет

Сообщений: 1229

Создавать темы 22-Янв-2023 07:35 | #7 (спустя 1 час 16 минут)

[Цитировать]

33133на кинозале вчера выложили оказывается) кому нужно можно взять там) и HDR версия и обычная и дороги 5.1 и тд. Уж если кому нужны итальянские дороги то говорите сейчас, пока не удалил))) себе фильм соберу явно без них) если фильм будем релизить тут, то наверное есть смысл синхронить и многоголоску) она мне гораздо приятнее на слух чем версия от RealFake.
Я думаю, смысл есть только в английском звуке, и оригинальном корейском. Остальные не так востребованы.
[Профиль] [ЛС]
Вернуться к началу

maks_lev

Пол: Мужской

Стаж: 1 год 2 месяца

Сообщений: 262

Откуда: Тверь

Создавать темы 22-Янв-2023 08:01 | #8 (спустя 25 минут)

[Цитировать]

33134смысл есть только в английском звуке, и оригинальном корейском
ну я с кинозала всё слил, теперь и английский тоже есть в 5.1
[Профиль] [ЛС]
Вернуться к началу
Показать сообщения:    
Ответить на тему

Текущее время: 05-Фев 04:25

Часовой пояс: UTC + 3



Вы не можете начинать темы
Вы не можете отвечать на сообщения
Вы не можете редактировать свои сообщения
Вы не можете удалять свои сообщения
Вы не можете голосовать в опросах
Вы не можете прикреплять файлы к сообщениям
Вы не можете скачивать файлы