Женщина на Луне / Frau im Mond (Фриц Ланг) [1929, научно-фантастический, немое кино, драма, BDRip-1080p] ПО (Светла), СТ (vjub58)

Ответить на тему
 
Автор Сообщение

Faer ®

Пол: Мужской

Стаж: 8 лет 4 месяца

Сообщений: 1333

Создавать темы 08-Май-2023 05:53 | #1

[Цитировать]

Женщина на Луне / Frau im Mond
Год выпуска: 1929
Страна: Германия
Жанр: научно-фантастический, немое кино, драма
Продолжительность: 02:49:56
Перевод 1: Профессиональный одноголосый
Перевод 2: субтитры (vjub58)
Режиссер: Фриц Ланг
В ролях: Клаус Пол, Вилли Фритш, Фритц Расп, Герда Маурус, Густав фон Вангенхайм
Описание: Когда в 1928 г. известный режиссёр Фриц Ланг начал работу над фильмом «Женщина на Луне» то к сотрудничеству был привлечен ведущий германский эксперт в области ракетотехники Герман Оберт -- учитель Вернера фон Брауна, будущего создателя Фау-2 и отца американской космонавтики. В фильме показан старт ракеты со стартовыми ступенями, торможение двигателями, невесомость. Фильм поставлен по мотивам фантастического романа Теа фон Харбоу. Профессор Георг Манфельдт 30 лет назад был освистан коллегами за предположение, что поверхность Луны изобилует золотом, и его там гораздо больше, чем на земле и это сможет доказать посланная туда экспедиция. Теперь он влачит полуголодное существование, оставленный всеми, кроме его последователя Вольфа Хелиуса. Вольф Хелиус говорит профессору, что намерен совершить космическую экспедицию по его проекту. Профессор умоляет взять и его в путешествие. В экспедицию отправляется и его друг инженер Виндеггер, который помогал Хелиусу в разработке космического корабля и его невеста Фриде Велтен, в которую давно влюблен и Виндеггер. Старт лунной экспедиции происходит при огромном стечении народа со специального космодрома


Качество: BDRip-1080p
Формат: MKV
Видео: x265, 1440х1080, 4:3, 23.976fps, 2001 Кбит/с
Аудио 1: Русский ПО (AC3, 2 ch, 224 Кбит/с)
Аудио 2: Немецкий (AC3, 2 ch, 640 Кбит/с)
Субтитры : Русские (vjub58), английские
Работа над релизом:
Видеоряд найден в сети
Синхронизация русской дорожки и тайминг субтитров - sasha20072007 (kosmoaelita)
Русская озвучка - ПО "Светла"
Перевод с немецкого и субтитры - vjub58

Дополнительно

Техническим консультантом фильма был выдающийся немецкий инженер Херманн Оберт, один из инициаторов создания ракетной техники и энтузиаст идеи космических полётов, предшественник и учитель Вернера фон Брауна. Более того: участие в этом проекте существенно помогло Оберту в экспериментах по постройке настоящей жидкотопливной ракеты.
В фильме впервые был показан предстартовый обратный отсчёт. Он был придуман как драматический приём для нагнетания напряжения, но оказался чрезвычайно удобным и впоследствии естественным образом вошёл в практику ракетных запусков.
Наиболее распространённая версия фильма имеет продолжительность 169 минут. Восстановленная в 2000 году полная версия длится 200 минут. Американский прокатный вариант был сокращён до 95 минут.
Кадр из фильма был нарисован на нижней части корпуса первого экземпляра ракеты Фау-2.

Рецензия

Обратный отсчет
Бурный научно-технический прогресс 20-х годов спровоцировал развитие научной фантастики и настоящий бум на проекты межпланетных полетов. Ведущий немецкий кинорежиссер того времени пытался, но не смог остаться в стороне.
Этот фильм Фрица Ланга относят к приключенческой научной фантастике, но на самом деле он включает в себя три главные сюжетные линии: романтическую, за сценарий которой отвечала жена Ланга и его постоянный соавтор Теа фон Харбоу, детективно-шпионскую, в которой самому режиссеру в те годы и близко не было равных, и собственно научно-фантастическую, для чего киностудией UFA и лично Лангом был привлечен один из пионеров мирового ракетостроения, выдающийся инженер Герман Оберт, который стал техническим консультантом картины. Отдельно были выделены средства только на то, чтобы построить настоящую жидкотопливную ракету, которая должна была полететь в стратосферу одновременно с премьерой картины.
Следствием основательного подхода Ланга к технической реализации стало кино, во многом опередившее свое время. В фильме очень реалистично показана подготовка старта ракеты, максимально точно предсказано устройство стартового комплекса, в котором ракета выезжает из ангара в вертикальном положении и аналогично стартует. Достаточно убедительно по меркам того времени была снята и невесомость, особенно если учесть, что на съемках фильма разгорелись горячие споры между режиссером, актерами и техническим консультантом на тему того, как именно космонавты должны перемещаться внутри космического корабля. В итоге пришли к консенсусу, который устроил всех.Между тем, экипаж космического корабля подобрался более чем занятный. Главными пилотами выступили целеустремленные молодые люди в модных свитерах, сорочках и галстуках. Третьим астронавтом, как и положено в настоящем научно-фантастическом фильме, полетела сочная двадцатипятилетняя блондинка, якобы студентка отделения астрономии, но в первую очередь невеста одного из пилотов.
Кроме высокоинтеллектуального космического треугольника неотъемлемой частью экипажа стали: представляющий непризнанную научную элиту Профессор, наполовину бомж, но полностью гений, а также Фриц Расп, который, как обычно в фильмах Ланга и Пабста, очень убедителен в роли злодея. Правда, наймит межпланетного империализма в его исполнении на этот раз оказался совсем уж нацистского вида, поэтому не удивительно, что фильм был чуть позже забанен, и вряд ли только потому, что в нем описывались секретные принципы ракетостроения, нашедшие место в реальных военных разработках третьего рейха.
Конечно, многие технические детали фильма сегодня кажутся забавными, например, космические скафандры сильно похожи на водолазные костюмы начала 20 века, а со вкусом и даже саспенсом снятое прилунение все равно выглядит слегка комично. Да, и если бы не Ланг, то в жизни бы не подумал, что космонавты летают с таким экспрессивным выражением лиц!
Тем не менее, последний немой фильм Ланга стал огромным шагом вперед по сравнению с короткометражкой Мельеса, а обратный отсчет при старте, одна из самых простых и гениальных находок режиссера, оказалась настолько удачной, что впоследствии заняла свое место в реальной космонавтике.

MediaInfo

Общее
Уникальный идентификатор : 338778476996109952020404990614965082634 (0xFEDE5C8085500670F64C8BE5B22C5A0A)
Формат : Matroska
Версия формата : Version 4
Размер файла : 3,40 Гбайт
Продолжительность : 2 ч. 49 м.
Общий поток : 2 868 Кбит/сек
Название фильма : Женщина на Луне Frau im Mond | 1929 / kosmoaelita
Дата кодирования : UTC 2023-05-08 02:40:08
Программа кодирования : mkvmerge v52.0.0 ('Secret For The Mad') 64-bit
Библиотека кодирования : libebml v1.4.1 + libmatroska v1.6.2
Видео
Идентификатор : 1
Формат : HEVC
Формат/Информация : High Efficiency Video Coding
Профиль формата : Main 10@L4@Main
Идентификатор кодека : V_MPEGH/ISO/HEVC
Продолжительность : 2 ч. 49 м.
Битрейт : 2 001 Кбит/сек
Ширина : 1 440 пикселей
Высота : 1 080 пикселей
Соотношение сторон : 4:3
Режим частоты кадров : Постоянный
Частота кадров : 23,976 (24000/1001) кадра/сек
Цветовое пространство : YUV
Субдискретизация насыщенности : 4:2:0
Битовая глубина : 10 бит
Бит/(Пиксели*Кадры) : 0.054
Размер потока : 2,37 Гбайт (70%)
Библиотека кодирования : x265 3.3+4-rarbg-30eb4de83092:[Linux][GCC 8.3.1][64 bit] 10bit
Настройки программы : cpuid=1111039 / frame-threads=4 / wpp / no-pmode / no-pme / no-psnr / no-ssim / log-level=2 / input-csp=1 / input-res=1440x1080 / interlace=0 / total-frames=0 / level-idc=0 / high-tier=1 / uhd-bd=0 / ref=4 / no-allow-non-conformance / no-repeat-headers / annexb / no-aud / no-hrd / info / hash=0 / no-temporal-layers / open-gop / min-keyint=23 / keyint=250 / gop-lookahead=0 / bframes=4 / b-adapt=2 / b-pyramid / bframe-bias=0 / rc-lookahead=25 / lookahead-slices=4 / scenecut=40 / hist-scenecut=0 / radl=0 / no-splice / no-intra-refresh / ctu=64 / min-cu-size=8 / rect / no-amp / max-tu-size=32 / tu-inter-depth=1 / tu-intra-depth=1 / limit-tu=0 / rdoq-level=2 / dynamic-rd=0.00 / no-ssim-rd / signhide / no-tskip / nr-intra=0 / nr-inter=0 / no-constrained-intra / strong-intra-smoothing / max-merge=3 / limit-refs=3 / limit-modes / me=3 / subme=3 / merange=57 / temporal-mvp / no-frame-dup / no-hme / weightp / no-weightb / no-analyze-src-pics / deblock=0:0 / no-sao / no-sao-non-deblock / rd=4 / selective-sao=0 / no-early-skip / rskip / no-fast-intra / no-tskip-fast / no-cu-lossless / no-b-intra / no-splitrd-skip / rdpenalty=0 / psy-rd=2.00 / psy-rdoq=1.00 / no-rd-refine / no-lossless / cbqpoffs=0 / crqpoffs=0 / rc=abr / bitrate=2000 / qcomp=0.60 / qpstep=4 / stats-write=0 / stats-read=2 / cplxblur=20.0 / qblur=0.5 / ipratio=1.40 / pbratio=1.30 / aq-mode=3 / aq-strength=1.00 / cutree / zone-count=0 / no-strict-cbr / qg-size=32 / no-rc-grain / qpmax=69 / qpmin=0 / no-const-vbv / sar=1 / overscan=0 / videoformat=5 / range=0 / colorprim=2 / transfer=2 / colormatrix=2 / chromaloc=0 / display-window=0 / cll=0,0 / min-luma=0 / max-luma=1023 / log2-max-poc-lsb=8 / vui-timing-info / vui-hrd-info / slices=1 / no-opt-qp-pps / no-opt-ref-list-length-pps / no-multi-pass-opt-rps / scenecut-bias=0.05 / hist-threshold=0.01 / no-opt-cu-delta-qp / no-aq-motion / no-hdr10 / no-hdr10-opt / no-dhdr10-opt / no-idr-recovery-sei / analysis-reuse-level=0 / analysis-save-reuse-level=0 / analysis-load-reuse-level=0 / scale-factor=0 / refine-intra=0 / refine-inter=0 / refine-mv=1 / refine-ctu-distortion=0 / no-limit-sao / ctu-info=0 / no-lowpass-dct / refine-analysis-type=0 / copy-pic=1 / max-ausize-factor=1.0 / no-dynamic-refine / no-single-sei / no-hevc-aq / no-svt / no-field / qp-adaptation-range=1.00 / no-scenecut-aware-qpconformance-window-offsets / right=0 / bottom=0
Default : Да
Forced : Нет
Аудио #1
Идентификатор : 2
Формат : AC-3
Формат/Информация : Audio Coding 3
Коммерческое название : Dolby Digital
Идентификатор кодека : A_AC3
Продолжительность : 2 ч. 49 м.
Вид битрейта : Постоянный
Битрейт : 224 Кбит/сек
Каналы : 2 канала
Channel layout : L R
Частота : 48,0 КГц
Частота кадров : 31,250 кадров/сек (1536 SPF)
Метод сжатия : С потерями
Размер потока : 272 Мбайт (8%)
Заголовок : Русский ПО
Язык : Russian
Service kind : Complete Main
Default : Да
Forced : Нет
Аудио #2
Идентификатор : 3
Формат : AC-3
Формат/Информация : Audio Coding 3
Коммерческое название : Dolby Digital
Идентификатор кодека : A_AC3
Продолжительность : 2 ч. 49 м.
Вид битрейта : Постоянный
Битрейт : 640 Кбит/сек
Каналы : 2 канала
Channel layout : L R
Частота : 48,0 КГц
Частота кадров : 31,250 кадров/сек (1536 SPF)
Метод сжатия : С потерями
Размер потока : 778 Мбайт (22%)
Язык : German
Service kind : Complete Main
Default : Нет
Forced : Нет
Текст #1
Идентификатор : 4
Формат : VobSub
Режим смешивания : zlib
Идентификатор кодека : S_VOBSUB
Идентификатор кодека/Информация : Picture based subtitle format used on DVDs
Продолжительность : 2 ч. 48 м.
Битрейт : 836 бит/сек
Count of elements : 374
Размер потока : 1,01 Мбайт (0%)
Заголовок : Русские (vjub58) VobSub
Язык : Russian
Default : Да
Forced : Нет
Текст #2
Идентификатор : 5
Формат : UTF-8
Идентификатор кодека : S_TEXT/UTF8
Идентификатор кодека/Информация : UTF-8 Plain Text
Продолжительность : 2 ч. 48 м.
Битрейт : 24 бит/сек
Count of elements : 374
Размер потока : 29,7 Кбайт (0%)
Заголовок : Русские (vjub58)
Язык : Russian
Default : Нет
Forced : Нет
Текст #3
Идентификатор : 6
Формат : VobSub
Режим смешивания : zlib
Идентификатор кодека : S_VOBSUB
Идентификатор кодека/Информация : Picture based subtitle format used on DVDs
Продолжительность : 2 ч. 45 м.
Битрейт : 1 041 бит/сек
Count of elements : 407
Размер потока : 1,23 Мбайт (0%)
Язык : English
Default : Нет
Forced : Нет
Меню
00:00:00.000 : en:Chapter 1
00:02:59.637 : en:Chapter 2
00:10:45.519 : en:Chapter 3
00:16:55.431 : en:Chapter 4
00:26:18.201 : en:Chapter 5
00:39:06.552 : en:Chapter 6
00:44:50.437 : en:Chapter 7
00:50:35.615 : en:Chapter 8
01:01:37.485 : en:Chapter 9
01:12:57.664 : en:Chapter 10
01:16:33.547 : en:Chapter 11
01:34:15.149 : en:Chapter 12
01:45:10.470 : en:Chapter 13
01:49:55.255 : en:Chapter 14
01:58:13.086 : en:Chapter 15
02:09:05.404 : en:Chapter 16
02:13:56.236 : en:Chapter 17
02:16:45.739 : en:Chapter 18
02:24:35.208 : en:Chapter 19
02:31:00.593 : en:Chapter 20
02:33:28.324 : en:Chapter 21
02:38:20.908 : en:Chapter 22
02:41:30.514 : en:Chapter 23
02:45:28.668 : en:Chapter 24

Пример субтитров

1
00:00:28,720 --> 00:00:32,474
ЖЕНЩИНА НА ЛУНЕ
2
00:00:33,320 --> 00:00:36,517
Фильм был создан благодаря
сотрудничеству с:
3
00:00:58,080 --> 00:00:59,559
В фильме снимались:
4
00:01:19,480 --> 00:01:23,155
Автор сценария:
Теа фон Харбоу
5
00:01:23,600 --> 00:01:27,354
Режиссер:
Фриц Ланг
6
00:01:38,160 --> 00:01:40,435
В ролях:
7
00:01:40,840 --> 00:01:44,196
Профессор Георг Манфельдт -
Клаус Поль
8
00:01:44,520 --> 00:01:47,478
Вольф Хелиус -
Вилли Фритш
9
00:01:47,720 --> 00:01:51,315
Инженер Ханс Виндеггер -
Густав фон Вангенхайм
10
00:01:52,040 --> 00:01:56,033
Фрида Вельтен -
Герда Маурус
11
00:01:56,320 --> 00:01:59,949
Густав -
Густи Штарк-Гштеттенбаур
12
00:02:00,280 --> 00:02:04,193
Человек, называющий себя
Вальтером Турнером - Фриц Расп
13
00:02:06,560 --> 00:02:09,552
5 мозгов и чековых книжек -
14
00:02:09,800 --> 00:02:12,473
Тилла Дурио, Херман Валентин,
15
00:02:12,720 --> 00:02:15,553
Макс Цильцер, Махнмуд Терья Бей,
16
00:02:15,920 --> 00:02:17,797
Борвин Вальт
17
00:02:18,040 --> 00:02:20,952
Человек у микрофона -
Карл Платен
18
00:02:21,200 --> 00:02:23,156
Мышь Жозефина
19
00:02:24,880 --> 00:02:28,077
Художественные консультанты -
Проф. Доктор Густав Вольф, Карлсруэ
20
00:02:28,280 --> 00:02:30,191
Йозеф Даниловатц, Вена

Скриншоты






Последний раз редактировалось: Faer (2023-05-09 21:21), всего редактировалось 1 раз
[Профиль] [ЛС]
Вернуться к началу

archestrategos

Пол: Мужской

Стаж: 3 года 6 месяцев

Сообщений: 144

Откуда: СССР

Создавать темы 08-Май-2023 21:39 | #2 (спустя 15 часов)

[Цитировать]

Пожалуйста, встаньте кто-нибудь на раздачу.
Это же ж Фриц, чтоб его, Ланг!))
[Профиль] [ЛС]
Вернуться к началу
Показать сообщения:    
Ответить на тему

Текущее время: 05-Июн 19:21

Часовой пояс: UTC + 3



Вы не можете начинать темы
Вы не можете отвечать на сообщения
Вы не можете редактировать свои сообщения
Вы не можете удалять свои сообщения
Вы не можете голосовать в опросах
Вы не можете прикреплять файлы к сообщениям
Вы не можете скачивать файлы