Дракула против Франкенштейна / Dracula contra Frankenstein / Dracula Against Frankenstein (Хесус Франко / Jesús Franco) [1972, Франция, испания, Португалия, Лихтенштейн, готика, ужасы, фантастика] (ЛО : den904) (Sub Rus)

Reply to topic
 
Author Message

Susanin ®

Gender: Male

Longevity: 8 years 3 months

Posts: 865

Post 03-Aug-2017 19:10

[Quote]

Дракула против Франкенштейна / Dracula contra Frankenstein / Dracula Against Frankenstein
Страна: Франция, Испания, Португалия, Лихтенштейн
Жанр: готика, ужасы, фантастика
Год выпуска: 1972
Продолжительность: 01:21:43
Перевод: Любительский (одноголосый) den904
Cубтитры: русские
Режиссер: Хесус Франко / Jesús Franco
В ролях: Альберто Дальбес, Дэннис Прайс, Говард Вернон, Хесус Франко, Бритт Николс
Описание: Дракула убивает еще одну невиновную жертву, и доктор Сьюард решает, что пора стереть его с лица земли. Вооруженный молотом и деревянным колом, он прибывает в замок Дракула и своевременно убивает вампирского графа. Однако, на следующий день, доктор Франкенштейн прибывает со своим помощником Морфо и большим ящиком с монстром. Используя кровь певички из паба, похищенной его созданием, доктор возвращает Дракулу к жизни и использует его для своих целей. Граф и женщина-вампир продолжают терроризировать город, поэтому доктор Сьюард снова отправляется в замок Дракулы. К сожалению, на него напал монстр Франкенштейна и оставил умирать. Амира, цыганка, спасает его и призывает оборотня сражаться с силами зла ...

Скриншоты

[Profile] [PM]

Susanin ®

Gender: Male

Longevity: 8 years 3 months

Posts: 865

Post 03-Aug-2017 19:11 (after 1 minute)

[Quote]

Раздавать могу только вечером, по паре часов.
[Profile] [PM]

maks_lev

Gender: Male

Longevity: 8 months 13 days

Posts: 205

Location: Тверь

Post 03-Dec-2021 05:01 (after 4 years 3 months)

[Quote]

встаньте на раздачу пожалуйста кто нибудь)
[Profile] [PM]

CROMAG

Gender: Male

Longevity: 6 years 10 months

Posts: 3673

Location: Прибалтика

Post 03-Dec-2021 09:33 (after 4 hours)

[Quote]

maks_lev, Здесь это не прокатывает
[Profile] [PM]

Faer

Gender: Male

Longevity: 7 years 7 months

Posts: 1048

Post 03-Dec-2021 09:45 (after 11 minutes)

[Quote]

Если у помпилиуса нет - ни у кого нет.
[Profile] [PM]

pompilius

Gender: Male

Longevity: 4 years 9 months

Posts: 593

Post 03-Dec-2021 11:16 (after 1 hour 31 minute)

[Quote]

Дома буду - посмотрю
З.Ы. К сожалению нету - упустил...
[Profile] [PM]

pompilius

Gender: Male

Longevity: 4 years 9 months

Posts: 593

Post 06-Dec-2021 23:09 (after 3 days)

[Quote]

Есть такой 1080p.BluRay.x264.DTS 1 h 30 min без перевода:

MediaInfo

General
Unique ID : 46902802242783688407032694092066580033 (0x234926B08DE754E5AA8658DB2CDDE641)
Complete name : E:\1970-1979\1972.10.04 - Дракула против Франкенштейна Dracula contra Frankenstein\Dracula.vs.Frankenstein.1971.1080p.BluRay.x264.DTS-FGT.mkv
Format : Matroska
Format version : Version 4
File size : 8.27 GiB
Duration : 1 h 30 min
Overall bit rate : 13.0 Mb/s
Movie name : Dracula.vs.Frankenstein.1971.1080p.BluRay.x264.DTS-FGT
Encoded date : UTC 2018-02-12 13:02:39
Writing application : mkvmerge v20.0.0 ('I Am The Sun') 64-bit
Writing library : libebml v1.3.5 + libmatroska v1.4.8
Cover : Yes
Attachments : small_cover.jpg / small_cover_land.jpg / cover.jpg / cover_land.jpg
Video
ID : 1
Format : AVC
Format/Info : Advanced Video Codec
Format profile : High@L4.1
Format settings : CABAC / 4 Ref Frames
Format settings, CABAC : Yes
Format settings, Reference frames : 4 frames
Codec ID : V_MPEG4/ISO/AVC
Duration : 1 h 30 min
Bit rate : 11.5 Mb/s
Width : 1 788 pixels
Height : 1 080 pixels
Display aspect ratio : 5:3
Frame rate mode : Constant
Frame rate : 23.976 (24000/1001) FPS
Color space : YUV
Chroma subsampling : 4:2:0
Bit depth : 8 bits
Scan type : Progressive
Bits/(Pixel*Frame) : 0.248
Stream size : 7.31 GiB (88%)
Title : Dracula.vs.Frankenstein.1971.1080p.BluRay.x264.DTS-FGT
Writing library : x264 core 148 r2795M aaa9aa8
Encoding settings : cabac=1 / ref=4 / deblock=1:-2:-2 / analyse=0x3:0x113 / me=umh / subme=9 / psy=1 / psy_rd=1.00:0.15 / mixed_ref=1 / me_range=16 / chroma_me=1 / trellis=2 / 8x8dct=1 / cqm=0 / deadzone=21,11 / fast_pskip=1 / chroma_qp_offset=-3 / threads=24 / lookahead_threads=3 / sliced_threads=0 / nr=0 / decimate=1 / interlaced=0 / bluray_compat=0 / constrained_intra=0 / bframes=3 / b_pyramid=2 / b_adapt=2 / b_bias=0 / direct=3 / weightb=1 / open_gop=0 / weightp=2 / keyint=250 / keyint_min=25 / scenecut=40 / intra_refresh=0 / rc_lookahead=50 / rc=abr / mbtree=1 / bitrate=11500 / ratetol=1.0 / qcomp=0.60 / qpmin=0 / qpmax=69 / qpstep=4 / vbv_maxrate=31250 / vbv_bufsize=31250 / nal_hrd=none / filler=0 / ip_ratio=1.40 / aq=1:1.00
Language : English
Default : Yes
Forced : No
Audio
ID : 2
Format : DTS
Format/Info : Digital Theater Systems
Codec ID : A_DTS
Duration : 1 h 30 min
Bit rate mode : Constant
Bit rate : 1 509 kb/s
Channel(s) : 2 channels
Channel layout : L R
Sampling rate : 48.0 kHz
Frame rate : 93.750 FPS (512 SPF)
Bit depth : 16 bits
Compression mode : Lossy
Stream size : 980 MiB (12%)
Title : Dracula.vs.Frankenstein.1971.1080p.BluRay.x264.DTS-FGT
Language : English
Default : Yes
Forced : No
Text
ID : 3
Format : UTF-8
Codec ID : S_TEXT/UTF8
Codec ID/Info : UTF-8 Plain Text
Duration : 1 h 21 min
Bit rate : 42 b/s
Count of elements : 756
Stream size : 25.7 KiB (0%)
Language : English
Default : Yes
Forced : No
Menu
00:00:00.000 : en:Chapter 1
00:10:49.149 : en:Chapter 2
00:25:22.021 : en:Chapter 3
00:36:08.166 : en:Chapter 4
00:45:44.242 : en:Chapter 5
00:56:31.889 : en:Chapter 6
01:04:43.380 : en:Chapter 7
01:17:19.635 : en:Chapter 8
и такой DVDRip 1 h 18 min с переводом Алексеева:

MediaInfo

General
Complete name : E:\1970-1979\1972.10.04 - Дракула против Франкенштейна Dracula contra Frankenstein\drakula_protiv_frankenshteina_1971.avi
Format : AVI
Format/Info : Audio Video Interleave
File size : 1.46 GiB
Duration : 1 h 18 min
Overall bit rate : 2 653 kb/s
Writing application : VirtualDubMod 1.5.10.2 (build 2540/release)
Writing library : VirtualDubMod build 2540/release
Video
ID : 0
Format : MPEG-4 Visual
Format profile : Advanced Simple@L5
Format settings : BVOP2 / Custom Matrix
Format settings, BVOP : 2
Format settings, QPel : No
Format settings, GMC : No warppoints
Format settings, Matrix : Custom
Codec ID : XVID
Codec ID/Hint : XviD
Duration : 1 h 18 min
Bit rate : 1 998 kb/s
Width : 720 pixels
Height : 368 pixels
Display aspect ratio : 1.957
Frame rate : 25.000 FPS
Color space : YUV
Chroma subsampling : 4:2:0
Bit depth : 8 bits
Scan type : Progressive
Compression mode : Lossy
Bits/(Pixel*Frame) : 0.302
Stream size : 1.10 GiB (75%)
Writing library : XviD 1.2.1 (UTC 2008-12-04)
Audio #1
ID : 1
Format : AC-3
Format/Info : Audio Coding 3
Commercial name : Dolby Digital
Codec ID : 2000
Duration : 1 h 18 min
Bit rate mode : Constant
Bit rate : 192 kb/s
Channel(s) : 2 channels
Channel layout : L R
Sampling rate : 48.0 kHz
Frame rate : 31.250 FPS (1536 SPF)
Bit depth : 16 bits
Compression mode : Lossy
Stream size : 108 MiB (7%)
Alignment : Split across interleaves
Interleave, duration : 40 ms (1.00 video frame)
Interleave, preload duration : 500 ms
Service kind : Complete Main
Audio #2
ID : 2
Format : AC-3
Format/Info : Audio Coding 3
Commercial name : Dolby Digital
Codec ID : 2000
Duration : 1 h 18 min
Bit rate mode : Constant
Bit rate : 448 kb/s
Channel(s) : 6 channels
Channel layout : L R C LFE Ls Rs
Sampling rate : 48.0 kHz
Frame rate : 31.250 FPS (1536 SPF)
Bit depth : 16 bits
Compression mode : Lossy
Stream size : 252 MiB (17%)
Alignment : Split across interleaves
Interleave, duration : 40 ms (1.00 video frame)
Interleave, preload duration : 500 ms
Service kind : Complete Main
Если бы синхронизировать, сам не смогу к сожалению, да ещё голос Дэна остался у него, было бы хорошо.
[Profile] [PM]

Darth_47

Gender: Male

Longevity: 3 years 3 months

Posts: 1270

Post 07-Dec-2021 01:02 (after 1 hour 53 minutes)

[Quote]

30889да ещё голос Дэна остался у него, было бы хорошо.
Дэн, насколько я знаю, хранит все свои работы, у него десятки винтов с этим добром) По идее, где-то должен храниться и данный шедевр)
[Profile] [PM]

maks_lev

Gender: Male

Longevity: 8 months 13 days

Posts: 205

Location: Тверь

Post 08-Dec-2021 04:58 (after 1 day 3 hours)

[Quote]

30889Есть такой 1080p.BluRay.x264.DTS 1 h 30 min без перевода:

MediaInfo

General
Unique ID : 46902802242783688407032694092066580033 (0x234926B08DE754E5AA8658DB2CDDE641)
Complete name : E:\1970-1979\1972.10.04 - Дракула против Франкенштейна Dracula contra Frankenstein\Dracula.vs.Frankenstein.1971.1080p.BluRay.x264.DTS-FGT.mkv
Format : Matroska
Format version : Version 4
File size : 8.27 GiB
Duration : 1 h 30 min
Overall bit rate : 13.0 Mb/s
Movie name : Dracula.vs.Frankenstein.1971.1080p.BluRay.x264.DTS-FGT
Encoded date : UTC 2018-02-12 13:02:39
Writing application : mkvmerge v20.0.0 ('I Am The Sun') 64-bit
Writing library : libebml v1.3.5 + libmatroska v1.4.8
Cover : Yes
Attachments : small_cover.jpg / small_cover_land.jpg / cover.jpg / cover_land.jpg
Video
ID : 1
Format : AVC
Format/Info : Advanced Video Codec
Format profile : High@L4.1
Format settings : CABAC / 4 Ref Frames
Format settings, CABAC : Yes
Format settings, Reference frames : 4 frames
Codec ID : V_MPEG4/ISO/AVC
Duration : 1 h 30 min
Bit rate : 11.5 Mb/s
Width : 1 788 pixels
Height : 1 080 pixels
Display aspect ratio : 5:3
Frame rate mode : Constant
Frame rate : 23.976 (24000/1001) FPS
Color space : YUV
Chroma subsampling : 4:2:0
Bit depth : 8 bits
Scan type : Progressive
Bits/(Pixel*Frame) : 0.248
Stream size : 7.31 GiB (88%)
Title : Dracula.vs.Frankenstein.1971.1080p.BluRay.x264.DTS-FGT
Writing library : x264 core 148 r2795M aaa9aa8
Encoding settings : cabac=1 / ref=4 / deblock=1:-2:-2 / analyse=0x3:0x113 / me=umh / subme=9 / psy=1 / psy_rd=1.00:0.15 / mixed_ref=1 / me_range=16 / chroma_me=1 / trellis=2 / 8x8dct=1 / cqm=0 / deadzone=21,11 / fast_pskip=1 / chroma_qp_offset=-3 / threads=24 / lookahead_threads=3 / sliced_threads=0 / nr=0 / decimate=1 / interlaced=0 / bluray_compat=0 / constrained_intra=0 / bframes=3 / b_pyramid=2 / b_adapt=2 / b_bias=0 / direct=3 / weightb=1 / open_gop=0 / weightp=2 / keyint=250 / keyint_min=25 / scenecut=40 / intra_refresh=0 / rc_lookahead=50 / rc=abr / mbtree=1 / bitrate=11500 / ratetol=1.0 / qcomp=0.60 / qpmin=0 / qpmax=69 / qpstep=4 / vbv_maxrate=31250 / vbv_bufsize=31250 / nal_hrd=none / filler=0 / ip_ratio=1.40 / aq=1:1.00
Language : English
Default : Yes
Forced : No
Audio
ID : 2
Format : DTS
Format/Info : Digital Theater Systems
Codec ID : A_DTS
Duration : 1 h 30 min
Bit rate mode : Constant
Bit rate : 1 509 kb/s
Channel(s) : 2 channels
Channel layout : L R
Sampling rate : 48.0 kHz
Frame rate : 93.750 FPS (512 SPF)
Bit depth : 16 bits
Compression mode : Lossy
Stream size : 980 MiB (12%)
Title : Dracula.vs.Frankenstein.1971.1080p.BluRay.x264.DTS-FGT
Language : English
Default : Yes
Forced : No
Text
ID : 3
Format : UTF-8
Codec ID : S_TEXT/UTF8
Codec ID/Info : UTF-8 Plain Text
Duration : 1 h 21 min
Bit rate : 42 b/s
Count of elements : 756
Stream size : 25.7 KiB (0%)
Language : English
Default : Yes
Forced : No
Menu
00:00:00.000 : en:Chapter 1
00:10:49.149 : en:Chapter 2
00:25:22.021 : en:Chapter 3
00:36:08.166 : en:Chapter 4
00:45:44.242 : en:Chapter 5
00:56:31.889 : en:Chapter 6
01:04:43.380 : en:Chapter 7
01:17:19.635 : en:Chapter 8
и такой DVDRip 1 h 18 min с переводом Алексеева:

MediaInfo

General
Complete name : E:\1970-1979\1972.10.04 - Дракула против Франкенштейна Dracula contra Frankenstein\drakula_protiv_frankenshteina_1971.avi
Format : AVI
Format/Info : Audio Video Interleave
File size : 1.46 GiB
Duration : 1 h 18 min
Overall bit rate : 2 653 kb/s
Writing application : VirtualDubMod 1.5.10.2 (build 2540/release)
Writing library : VirtualDubMod build 2540/release
Video
ID : 0
Format : MPEG-4 Visual
Format profile : Advanced Simple@L5
Format settings : BVOP2 / Custom Matrix
Format settings, BVOP : 2
Format settings, QPel : No
Format settings, GMC : No warppoints
Format settings, Matrix : Custom
Codec ID : XVID
Codec ID/Hint : XviD
Duration : 1 h 18 min
Bit rate : 1 998 kb/s
Width : 720 pixels
Height : 368 pixels
Display aspect ratio : 1.957
Frame rate : 25.000 FPS
Color space : YUV
Chroma subsampling : 4:2:0
Bit depth : 8 bits
Scan type : Progressive
Compression mode : Lossy
Bits/(Pixel*Frame) : 0.302
Stream size : 1.10 GiB (75%)
Writing library : XviD 1.2.1 (UTC 2008-12-04)
Audio #1
ID : 1
Format : AC-3
Format/Info : Audio Coding 3
Commercial name : Dolby Digital
Codec ID : 2000
Duration : 1 h 18 min
Bit rate mode : Constant
Bit rate : 192 kb/s
Channel(s) : 2 channels
Channel layout : L R
Sampling rate : 48.0 kHz
Frame rate : 31.250 FPS (1536 SPF)
Bit depth : 16 bits
Compression mode : Lossy
Stream size : 108 MiB (7%)
Alignment : Split across interleaves
Interleave, duration : 40 ms (1.00 video frame)
Interleave, preload duration : 500 ms
Service kind : Complete Main
Audio #2
ID : 2
Format : AC-3
Format/Info : Audio Coding 3
Commercial name : Dolby Digital
Codec ID : 2000
Duration : 1 h 18 min
Bit rate mode : Constant
Bit rate : 448 kb/s
Channel(s) : 6 channels
Channel layout : L R C LFE Ls Rs
Sampling rate : 48.0 kHz
Frame rate : 31.250 FPS (1536 SPF)
Bit depth : 16 bits
Compression mode : Lossy
Stream size : 252 MiB (17%)
Alignment : Split across interleaves
Interleave, duration : 40 ms (1.00 video frame)
Interleave, preload duration : 500 ms
Service kind : Complete Main
Если бы синхронизировать, сам не смогу к сожалению, да ещё голос Дэна остался у него, было бы хорошо.
Скинь в личку ссылку на скачивание) попробую. Алексеев есть тоже у меня и BDrip на 01:21:43 непонятной версии с тремя дорогами на иностранных языках.
[Profile] [PM]

maks_lev

Gender: Male

Longevity: 8 months 13 days

Posts: 205

Location: Тверь

Post 04-Apr-2022 22:13 (after 3 months 27 days)

[Quote]

На днях многоуважаемый наш den904 нашёл в своих архивах и прислал мне фильм в его переводе "Дракула против Франкенштейна" 1972 года. Я надеялся восстановить раздачу Сусанина (царствие ему небесное) - но увы торренты не совпадают и просто встать на сидирование не получается. Кроме того качество не блещет и у меня есть этот фильм в меньшем размере при условно том же качестве и если нужно то я могу прикрутить перевод к нему тоже, чтобы у скачивающего был выбор как и на многих раздачах что выложены тут.) Прошу совета админов как поступить лучше: мне создать новую раздачу, а прежнюю вы удалите или вы её отредактируете? Жду в лс или тут какие мои действия)
[Profile] [PM]

Darth_47

Gender: Male

Longevity: 3 years 3 months

Posts: 1270

Post 05-Apr-2022 01:33 (after 3 hours)

[Quote]

31362На днях многоуважаемый наш den904 нашёл в своих архивах и прислал мне фильм в его переводе "Дракула против Франкенштейна" 1972 года. Я надеялся восстановить раздачу Сусанина (царствие ему небесное) - но увы торренты не совпадают и просто встать на сидирование не получается. Кроме того качество не блещет и у меня есть этот фильм в меньшем размере при условно том же качестве и если нужно то я могу прикрутить перевод к нему тоже, чтобы у скачивающего был выбор как и на многих раздачах что выложены тут.) Прошу совета админов как поступить лучше: мне создать новую раздачу, а прежнюю вы удалите или вы её отредактируете? Жду в лс или тут какие мои действия)
Делай новую раздачу.
[Profile] [PM]

maks_lev

Gender: Male

Longevity: 8 months 13 days

Posts: 205

Location: Тверь

Post 05-Apr-2022 06:21 (after 4 hours)

[Quote]

так точно)
[Profile] [PM]

maks_lev

Gender: Male

Longevity: 8 months 13 days

Posts: 205

Location: Тверь

Post 05-Apr-2022 21:11 (after 14 hours)

[Quote]

как дойдут руки оформлю. в исходнике от Дэна только его дорога. у меня есть ещё английская итальянская и оригинальная испанская, есть субтитры на этих жэ вроде языках. это я смогу прикрутить сам. вопрос ещё в том что есть у меня ещё это фильм в переводе Алексеева, но там нужно подгонять дороги, а там сложно нужно много резать и тд так как та версия фильма, что он озвучил короче на несколько минут. хотелось бы конечно объединить обе озвучки в одной раздаче. но нужна помощь...
и второе нужно ли выкладывать две другие части трилогии Хесуса Франко? тоже куча исходников накачано - нет времени обрабатывать всё это...
[Profile] [PM]

pompilius

Gender: Male

Longevity: 4 years 9 months

Posts: 593

Post 05-Apr-2022 22:07 (after 56 minutes)

[Quote]

31381нужно ли выкладывать две другие части трилогии Хесуса Франко?
Выкладывай конечно.
[Profile] [PM]
Display posts:    
Reply to topic

Current time is: 07-Aug 22:50

All times are UTC + 3



You cannot post new topics in this forum
You cannot reply to topics in this forum
You cannot edit your posts in this forum
You cannot delete your posts in this forum
You cannot vote in polls in this forum
You cannot attach files in this forum
You cannot download files in this forum