Без предупреждения | Without Warning (Роберт Исков | Robert Iscove) [1994, США, фантастика, фильм-катастрофа, DVDRip] АО (Horror Maker) + Sub (Eng) + Original Eng

Ответить на тему
 
Автор Сообщение

Darth_47 ®

Пол: Мужской

Стаж: 3 года 8 месяцев

Сообщений: 1454

Создавать темы 15-Янв-2023 16:36 | #1

[Цитировать]

Без предупреждения | Without Warning- Страна: США
Жанр: фантастика, фильм-катастрофа
Год выпуска: 1994
Продолжительность: 1:28:39-Перевод: Авторский (одноголосый закадровый) (Horror Maker)
Субтитры: английские-Режиссер: Роберт Исков | Robert Iscove-В ролях: Сандер Ванокур, Джейн Качмарек, Бри Уокер Лэмпли, Дуайр Браун, Брайан МакНамара, Джеймс Моррисон, Эшли Пелдон, Джеймс Хэнди, Карио Салем, Спенсер Гаррет и др.-Описание: Три метеорита падают на территории США, Франции и Китая. Сперва это кажется природным явлением, но после интервью с учеными и очевидцами выясняется, что все гораздо серьезнее. Инопланетное вмешательство или роковая случайность? Три новых астероида приближаются к Земле, и все правительства мира объединяют свои силы для того, чтобы остановить их.-Доп. информация: Фильм снят в стиле выпуска новостей, с частыми вставками репортажей с мест событий. Примечательно, что одну из главных ролей играет настоящий телеведущий Сандер Ванокур, а в качестве камео в картине отметился даже сам Артур Кларк.- -Релиз

Работа над релизом:
Исходник скачан с tv-vault.me
Авторский перевод - Horror Maker
Спонсоры перевода - archestrategos, EX1900, larik, Arias, CROMAG, surgeiten, soonixsan, Ввикторрр
Монтаж и сведение звука, сборка релиза - Darth_47
-Качество видео: DVDRip
Формат видео: MKV
Видео: Xvid 512x384 29.97fps 1505 kb/s
Аудио 1: Dolby AC3 48000Hz stereo 192kbps [Русский АО (Horror Maker)]
Аудио 2: Dolby AC3 48000Hz stereo 192kbps [Eng]
Субтитры: английские (srt, UTF-8)-

MediaInfo

General
Unique ID                      : 54248654822650944632938104781130785539 (0x28CFE92F34EA2AD3360448E968456303)
Complete name                  : Without Warning 1994.XviD.DVDRip.Rus-Eng.cinemaniacs.mkv
Format                         : Matroska
Format version                 : Version 4
File size                      : 1.17 GiB
Duration                       : 1 h 28 min
Overall bit rate               : 1 892 kb/s
Encoded date                   : UTC 2023-01-14 07:01:20
Writing application            : mkvmerge v35.0.0 ('All The Love In The World') 64-bit
Writing library                : libebml v1.3.9 + libmatroska v1.5.2
Video
ID                             : 1
Format                         : MPEG-4 Visual
Format profile                 : Simple@L3
Format settings, BVOP          : No
Format settings, QPel          : No
Format settings, GMC           : No warppoints
Format settings, Matrix        : Default (H.263)
Codec ID                       : V_MS/VFW/FOURCC / XVID
Codec ID/Hint                  : XviD
Duration                       : 1 h 28 min
Bit rate                       : 1 505 kb/s
Width                          : 512 pixels
Height                         : 384 pixels
Display aspect ratio           : 4:3
Frame rate mode                : Constant
Frame rate                     : 29.970 (30000/1001) FPS
Color space                    : YUV
Chroma subsampling             : 4:2:0
Bit depth                      : 8 bits
Scan type                      : Progressive
Compression mode               : Lossy
Bits/(Pixel*Frame)             : 0.255
Stream size                    : 955 MiB (80%)
Title                          : cinemaniacs
Writing library                : XviD 1.1.2 (UTC 2006-11-01)
Language                       : English
Default                        : Yes
Forced                         : No
Audio #1
ID                             : 2
Format                         : AC-3
Format/Info                    : Audio Coding 3
Commercial name                : Dolby Digital
Codec ID                       : A_AC3
Duration                       : 1 h 28 min
Bit rate mode                  : Constant
Bit rate                       : 192 kb/s
Channel(s)                     : 2 channels
Channel layout                 : L R
Sampling rate                  : 48.0 kHz
Frame rate                     : 31.250 FPS (1536 SPF)
Compression mode               : Lossy
Stream size                    : 122 MiB (10%)
Title                          : Русский АО (Horror Maker)
Language                       : Russian
Service kind                   : Complete Main
Default                        : Yes
Forced                         : No
Audio #2
ID                             : 3
Format                         : AC-3
Format/Info                    : Audio Coding 3
Commercial name                : Dolby Digital
Codec ID                       : A_AC3
Duration                       : 1 h 28 min
Bit rate mode                  : Constant
Bit rate                       : 192 kb/s
Channel(s)                     : 2 channels
Channel layout                 : L R
Sampling rate                  : 48.0 kHz
Frame rate                     : 31.250 FPS (1536 SPF)
Compression mode               : Lossy
Stream size                    : 122 MiB (10%)
Language                       : English
Service kind                   : Complete Main
Default                        : No
Forced                         : No
Text
ID                             : 4
Format                         : UTF-8
Codec ID                       : S_TEXT/UTF8
Codec ID/Info                  : UTF-8 Plain Text
Duration                       : 1 h 26 min
Bit rate                       : 112 b/s
Frame rate                     : 0.280 FPS
Count of elements              : 1457
Stream size                    : 71.3 KiB (0%)
Language                       : English
Default                        : No
Forced                         : No


Последний раз редактировалось: Darth_47 (2023-01-15 17:46), всего редактировалось 1 раз
[Профиль] [ЛС]
Вернуться к началу

Darth_47 ®

Пол: Мужской

Стаж: 3 года 8 месяцев

Сообщений: 1454

Создавать темы 15-Янв-2023 16:37 | #2 (спустя 1 минута)

[Цитировать]

Обожаю, когда совершенно неожиданно удается наткнуться среди старого и непереведенного на такие экземпляры, как этот фильм. Я уже выражал Фаеру в лучке благодарность за его нахождение, скажу и публично - огромное спасибо! Очень понравился, прямо очень! Огромное удовольствие испытал от просмотра. В последний раз такое было с сериалом "Незваные", с которым они даже в чем-то похожи. Фильм снят в стиле выпуска новостей, что я вообще вижу впервые. Фильмы в жанре "найденной пленки" все знают и они уже всем приелись (Монстро, Паранормальное явление, Спуск, Репортаж и т.д.), но вот выпуск новостей это действительно что-то необычное. Этот момент плюс интересный, пусть и немного избитый, сюжет вместе составили уникальное зрелище, от которого лично я не мог оторваться. Настоятельно рекомендую всем, кто это читает, к просмотру. Есть на трекере релизы не для всех, но этот фильм должен посмотреть каждый.
[Профиль] [ЛС]
Вернуться к началу

Darth_47 ®

Пол: Мужской

Стаж: 3 года 8 месяцев

Сообщений: 1454

Создавать темы 15-Янв-2023 17:49 | #3 (спустя 1 час 11 минут)

[Цитировать]

Люди на IMDB и Синемагеддоне очень лестно отзываются о картине, комментарии переполнены восторженными отзывами, некоторые из которых довольно забавные:
[Профиль] [ЛС]
Вернуться к началу
Показать сообщения:    
Ответить на тему

Текущее время: 05-Фев 04:59

Часовой пояс: UTC + 3



Вы не можете начинать темы
Вы не можете отвечать на сообщения
Вы не можете редактировать свои сообщения
Вы не можете удалять свои сообщения
Вы не можете голосовать в опросах
Вы не можете прикреплять файлы к сообщениям
Вы не можете скачивать файлы